#TITLE:Track30;
#SUBTITLE:;
#ARTIST:DJ MURASAME;
#TITLETRANSLIT:;
#SUBTITLETRANSLIT:;
#ARTISTTRANSLIT:;
#GENRE:;
#CREDIT:superHighway;
#MENUCOLOR:;
#METERTYPE:ITG;
#BANNER:track30-bn.png;
#BACKGROUND:track30-bg.png;
#LYRICSPATH:;
#CDTITLE:;
#MUSIC:track30.mp3;
#OFFSET:0.000;
#SAMPLESTART:0.012;
#SAMPLELENGTH:12.000;
#SELECTABLE:YES;
#LISTSORT:;
#BPMS:0.000=150.000;
#STOPS:;
#BGCHANGES:;
#ATTACKS:;

//---------------dance-single - ----------------
#NOTES:
     dance-single:
     :
     Hard:
     11:
     0.754,0.654,0.782,0.156,0.586:
1001
0000
0000
0010
0100
0000
0010
0000
0001
0000
0000
0100
1000
0000
0100
0000
,
0011
0000
0000
0100
0010
0000
0001
0000
1000
0000
0000
0010
0100
0000
0001
0000
,
0101
0000
0000
1000
0010
0000
1000
0000
0001
0000
0000
0010
0100
0000
1000
0000
,
1001
0000
0000
0010
1000
0000
0001
0000
0100
0000
0000
1000
0010
0000
0001
0000
,
0101
0000
0000
1000
0010
0000
1000
0000
0001
0000
0000
0010
0100
0000
1000
0000
,
1001
0000
0000
0010
1000
0000
0001
0000
0100
0000
0000
1000
0100
0000
0001
0000
,
0011
0000
0000
0100
1000
0000
0100
0000
0001
0000
0000
0100
0001
0000
0100
0000
,
0101
0000
0000
1000
0100
0000
0001
0000
0010
0000
0000
0100
1000
0002
0000
0003
,
1100
0000
0000
0100
0000
0000
1000
0000
0010
0000
0000
0100
0000
0000
0001
0000
,
1000
0000
0000
0100
0000
0000
0010
0000
1000
0000
0000
0100
0000
0000
0001
0000
,
0010
0000
0000
0010
0000
0000
0001
0000
0100
0000
0000
0010
0000
0000
1000
0000
,
0001
0000
0000
0010
0000
0000
0100
0000
0001
0000
0000
0010
0000
0000
1000
0000
,
1001
0000
0000
0011
0000
0000
1100
0000
0011
0000
0000
0110
0000
0000
0011
0000
,
1000
0000
0000
0001
0000
0000
0010
0000
1000
0000
0000
0010
0000
0000
1000
0000
,
0110
0000
0000
0000
1020
0000
0000
0030
1100
0000
0000
0110
0000
0000
1200
0000
,
0301
0000
0000
0000
0010
0000
0100
0000
0001
0000
0000
0000
0010
0000
2000
3000
;

//---------------dance-single - ----------------
#NOTES:
     dance-single:
     :
     Easy:
     4:
     0.385,0.310,0.078,0.235,0.000:
1001
0010
1000
0001
,
0100
0010
1000
0020
,
0030
1000
0100
0010
,
0100
2000
0010
3000
,
1010
0100
0001
0010
,
0100
1000
0010
2000
,
3000
0001
0010
0100
,
0010
0000
0001
0000
0100
0000
0020
0030
,
1000
0100
0010
0010
,
0001
1000
0001
0001
,
0010
0100
1000
1000
,
0001
0000
0010
0000
0100
0000
0200
0300
,
0100
0010
1000
1000
,
0001
0100
0001
0001
,
1000
0010
0100
0100
,
0001
0000
1000
0000
0010
0000
0020
0030
;

//---------------dance-single - ----------------
#NOTES:
     dance-single:
     :
     Medium:
     7:
     0.586,0.498,0.508,0.078,0.137: // measure 1
1001
0000
0010
0100
1000
0000
0001
0010
,  // measure 2
0001
0000
0000
0000
0100
0000
1000
0000
0001
0000
0000
0100
0010
0000
0000
0000
,  // measure 3
1000
0001
0100
0000
1000
0100
0010
0000
,  // measure 4
0100
0000
0010
0000
0010
0000
0100
0000
0001
0000
0000
0100
1000
0000
0000
0000
,  // measure 5
1000
0001
0100
0000
1000
0100
0010
0000
,  // measure 6
1000
0000
0100
0000
1000
0000
0000
0000
0010
0000
0000
1000
0010
0000
0000
0000
,  // measure 7
0010
0100
1000
0000
0010
0001
0010
0000
,  // measure 8
0010
0100
1000
0000
0001
0000
0020
0030
,  // measure 9
1000
0100
1000
0100
0010
0000
0010
0000
,  // measure 10
0001
0010
0001
0010
0100
0000
0100
0000
,  // measure 11
0100
1000
0100
1000
0010
0000
1000
0000
,  // measure 12
0010
1000
0010
1000
0001
1000
0001
0000
,  // measure 13
1001
0000
0000
0000
0101
0000
0000
0000
0110
0000
0000
0010
0000
0000
0000
0000
,  // measure 14
0101
0000
0000
0000
1100
0000
0000
0000
1010
0000
0000
1000
0000
0000
0000
0000
,  // measure 15
0101
0000
0000
0000
0011
0000
0000
0000
1010
0000
0000
1000
0000
0000
0000
0000
,  // measure 16
0011
0000
0000
0000
0110
0000
0000
0000
1100
0000
0000
1000
0000
0000
0200
0300
;
