#TITLE:Track29;
#SUBTITLE:;
#ARTIST:DJ MURASAME;
#TITLETRANSLIT:;
#SUBTITLETRANSLIT:;
#ARTISTTRANSLIT:;
#CREDIT:NXCProduction;
#BANNER:Track29.png;
#BACKGROUND:Track29-bg.png;
#LYRICSPATH:;
#CDTITLE:cdtitle.png;
#MUSIC:Track29.mp3;
#OFFSET:-0.020;
#SAMPLESTART:8.020;
#SAMPLELENGTH:12.000;
#SELECTABLE:YES;
#BPMS:0.000=150.000;
#STOPS:;
#BGCHANGES:;

//---------------dance-single - NXCProduction----------------
#NOTES:
     dance-single:
     NXCProduction:
     Hard:
     10:
     0.804,0.620,0.042,0.000,0.771: // measure 1
1001
0000
0000
0010
0100
0000
1000
0000
0010
0000
0000
0001
1000
0000
0010
0000
,  // measure 2
0001
0000
0000
0010
0100
0000
1000
0000
0001
0010
0100
0000
1000
0100
0010
0000
,  // measure 3
0001
0000
0000
0100
1000
0000
0010
0000
0100
0000
0000
1000
0010
0000
0001
0000
,  // measure 4
1000
0000
0000
0010
0100
0000
0010
0000
1000
0100
0001
0000
0010
0100
1000
0000
,  // measure 5
1000
0000
0000
0010
0100
0000
1000
0000
0010
0000
0000
0100
0001
0000
0010
0000
,  // measure 6
1000
0000
0000
0100
0010
0000
0001
0000
1000
0001
0100
0000
0010
1000
0001
0000
,  // measure 7
1000
0000
0000
0010
0100
0000
1000
0000
0010
0000
0000
1000
0001
0000
0100
0000
,  // measure 8
1000
0000
0000
0100
0010
0000
1000
0000
0001
0010
1000
0000
0100
0001
1000
0000
,  // measure 9
0010
0000
0000
0001
1000
0000
0010
0000
0100
0000
0000
1000
0001
0000
0010
0000
,  // measure 10
0100
0000
0000
0001
1000
0000
0100
0000
0010
1000
0001
0000
0010
0001
1000
0000
,  // measure 11
0001
0000
0000
0100
1000
0000
0010
0000
0100
0000
0000
1000
0010
0000
0100
0000
,  // measure 12
0001
0000
0000
0010
0100
0000
0001
0000
1000
0100
0001
0000
0010
0100
1000
0000
,  // measure 13
0001
0000
0000
0010
0100
0000
1000
0000
0010
0000
0000
0100
0001
0000
0010
0000
,  // measure 14
0100
0000
0000
0001
1000
0000
0100
0000
1000
0100
0010
0000
0001
0010
0100
0000
,  // measure 15
0001
0000
0000
0100
1000
0000
0001
0000
0010
0000
0000
1000
0100
0000
0010
0000
;

//---------------dance-single - NXCProduction----------------
#NOTES:
     dance-single:
     NXCProduction:
     Medium:
     8:
     0.584,0.465,0.042,0.000,0.479: // measure 1
1001
0000
0000
1000
0000
0000
0001
0000
0010
0000
0000
1000
0000
0000
0010
0000
,  // measure 2
0001
0000
0000
0100
0000
0000
0010
0000
1000
0000
0001
0000
1000
0000
0001
0000
,  // measure 3
1000
0000
0000
0010
0000
0000
0100
0000
0010
0000
0000
0100
0000
0000
0100
0000
,  // measure 4
1000
0000
0000
0001
0000
0000
1000
0000
0001
0000
1000
0000
0001
0000
1000
0000
,  // measure 5
0001
0000
0000
0010
0000
0000
0100
0000
0010
0000
0000
0010
0000
0000
1000
0000
,  // measure 6
1000
0000
0000
0100
0000
0000
0010
0000
0100
0000
0010
0000
0100
0000
0010
0000
,  // measure 7
0100
0000
0000
1000
0000
0000
0001
0000
1000
0000
0000
0001
0000
0000
0100
0000
,  // measure 8
0001
0000
0000
0100
0000
0000
0010
0000
0010
0000
0100
0000
0010
0000
0100
0000
,  // measure 9
0010
0000
0000
0010
0000
0000
0100
0000
0100
0000
0000
0010
0000
0000
0010
0000
,  // measure 10
0100
0000
0000
0001
0000
0000
1000
0000
1000
0000
0010
0000
1000
0000
0010
0000
,  // measure 11
1000
0000
0000
0010
0000
0000
0100
0000
0100
0000
0000
0100
0000
0000
0001
0000
,  // measure 12
0001
0000
0000
0100
0000
0000
0010
0000
0001
0000
0010
0000
0001
0000
0010
0000
,  // measure 13
0001
0000
0000
1000
0000
0000
0001
0000
0010
0000
0000
1000
0000
0000
0010
0000
,  // measure 14
0100
0000
0000
0100
0000
0000
0100
0000
0001
0000
0100
0000
0001
0000
0100
0000
,  // measure 15
0001
0000
0000
0010
0000
0000
1000
0000
0100
0000
0000
0001
0000
0000
0100
0000
;

//---------------dance-single - NXCProduction----------------
#NOTES:
     dance-single:
     NXCProduction:
     Easy:
     5:
     0.411,0.341,0.042,0.000,0.000:
1001
0100
0010
1000
,
0001
0000
1000
0000
0001
0000
1000
0001
,
1000
0100
0010
0001
,
1000
0000
0100
0000
1000
0000
0001
1000
,
0001
0100
1000
0100
,
0010
0000
0001
0000
0100
0000
0010
0100
,
0010
1000
0100
0001
,
0100
0000
0010
0000
0010
0000
0100
0010
,
0100
1000
0100
0010
,
0001
0000
1000
0000
0100
0000
0100
0010
,
0100
0001
1000
0100
,
0010
0000
0001
0000
0100
0000
0010
0100
,
0010
1000
0100
0001
,
1000
0000
0010
0000
0100
0000
1000
0001
,
1000
0000
0100
0000
0010
0000
0001
1000
;
