#TITLE:Track28;
#SUBTITLE:;
#ARTIST:DJ MURASAME;
#TITLETRANSLIT:;
#SUBTITLETRANSLIT:;
#ARTISTTRANSLIT:;
#GENRE:;
#CREDIT:AkihiroIIDX;
#BANNER:Track28 [AkihiroIIDX].png;
#BACKGROUND:Track28 [AkihiroIIDX-bg.png;
#LYRICSPATH:;
#CDTITLE:;
#MUSIC:Track28 [AkihiroIIDX].mp3;
#OFFSET:-0.025;
#SAMPLESTART:14.425;
#SAMPLELENGTH:12.000;
#SELECTABLE:YES;
#BPMS:0.000=150.000
;
#STOPS:
;
#BGCHANGES:;
#KEYSOUNDS:;
#ATTACKS:;

//---------------dance-single - ----------------
#NOTES:
     dance-single:
     :
     Easy:
     4:
     0.326,0.297,0.063,0.094,0.000,68.000,2.000,3.000,0.000,0.000,0.000,0.326,0.297,0.063,0.094,0.000,68.000,2.000,3.000,0.000,0.000,0.000: // measure 0
1001
1000
0000
0001
,  // measure 1
0000
0000
1000
0000
0001
0100
0001
0100
,  // measure 2
0001
1000
0000
0001
,  // measure 3
0000
0000
1000
0000
0100
0010
0001
0000
,  // measure 4
1000
0001
1000
0010
,  // measure 5
0100
0000
0001
0000
0010
0100
0010
0000
,  // measure 6
0001
1000
0010
1000
,  // measure 7
0200
0000
0000
0000
,  // measure 8
1300
0001
0000
0001
,  // measure 9
0010
1000
0000
1000
,  // measure 10
0100
0001
0000
1000
,  // measure 11
0010
0100
0010
0100
,  // measure 12
0001
0001
0001
0001
,  // measure 13
1000
1000
1000
1000
,  // measure 14
0100
0001
0100
1000
,  // measure 15
0002
0000
0000
0003
,  // measure 16
1000
0010
1000
0000
0001
0000
1000
0000
,  // measure 17
0001
0100
0001
0000
1000
0000
0001
0000
,  // measure 18
0100
0200
0000
0300
,  // measure 19
1001
0000
0000
0000
;

//---------------dance-single - ----------------
#NOTES:
     dance-single:
     :
     Medium:
     6:
     0.442,0.416,0.063,0.156,0.203,92.000,2.000,5.000,0.000,0.000,0.000,0.442,0.416,0.063,0.156,0.203,92.000,2.000,5.000,0.000,0.000,0.000:
1001
0000
0000
1000
0000
0000
0001
0000
0100
0000
0000
0100
0000
0000
0010
0000
,
1000
0000
0000
1000
0000
0000
0001
0000
1000
0000
0000
0000
0100
0000
0000
0000
,
0001
0000
0000
0001
0000
0000
0100
0000
0010
0000
0000
0010
0000
0000
1000
0000
,
0001
0000
0000
0010
0000
0000
0100
0000
1000
0000
0000
0000
0010
0000
0000
0000
,
0001
0000
0000
1000
0000
0000
0001
0000
1000
0000
0000
0001
0000
0000
1000
0000
,
0002
0000
0000
0003
,
1000
0000
0000
0010
0000
0000
1000
0000
0001
0000
0000
0100
0000
0000
0001
0000
,
2000
0000
0000
3000
,
0001
0010
0000
0010
0001
0000
1000
0000
,
0010
0000
0000
0000
1000
0000
0000
1000
0000
0000
1000
0000
0000
0000
0001
0000
,
0100
0000
0000
0000
0001
0000
0000
0001
0000
0000
0001
0000
1000
0000
0000
0000
,
0100
0010
0001
0000
0100
0010
1000
0000
,
0001
0010
0100
1000
0001
1000
0001
0000
,
1000
0010
0100
0001
0100
0010
0100
0000
,
0002
0000
0000
0000
,
2003
0000
0000
0000
,
3001
0100
0001
1000
0001
0100
0001
0000
,
1000
0000
0010
0000
1000
0000
0000
0001
0000
0000
1000
0000
0000
0000
1000
0000
,
0100
0010
0002
0000
1000
0000
1003
0000
,
1001
0000
0000
0000
;

//---------------dance-single - ----------------
#NOTES:
     dance-single:
     :
     Hard:
     8:
     0.621,0.475,0.063,0.156,0.328,132.000,2.000,5.000,0.000,0.000,0.000,0.621,0.475,0.063,0.156,0.328,132.000,2.000,5.000,0.000,0.000,0.000:
1001
0000
0000
0001
0000
0000
1000
0000
0001
0000
0000
0001
0000
0000
0100
0000
,
0001
0000
0000
0001
0000
0000
1000
0000
0010
0000
0010
0000
0100
0000
0010
0000
,
1000
0000
0000
1000
0000
0000
0001
0000
1000
0000
0000
1000
0000
0000
0100
0000
,
1000
0000
0000
1000
0000
0000
0001
0000
1000
0000
0100
0000
0010
0000
0001
0000
,
1000
0000
0000
0010
0000
0000
0001
0000
0010
0000
0000
0010
0000
0000
1000
0000
,
0001
0000
0000
0010
0000
0000
1000
0000
0010
0100
0010
0000
0001
0000
1000
0000
,
0010
0000
0000
0010
0000
0000
0100
0000
0001
0000
0000
0001
0000
0000
1000
0000
,
0200
0000
0000
0000
0000
0000
0310
0001
1000
0000
0001
0000
0100
0000
0010
0000
,
2000
0001
0000
0001
3000
0001
1000
0100
,
0020
0000
0000
0000
0100
0000
0000
0100
0030
0000
1000
0000
0001
0000
0100
0000
,
0001
0000
1000
0000
0010
0000
0000
0010
0000
0000
0001
0000
0010
0000
1000
0000
,
0100
0000
0010
0000
0001
0000
0000
1000
0000
0001
0000
1000
0001
0000
0100
0000
,
0010
1000
0100
1000
0001
0010
0100
1000
,
0001
0100
1000
0100
0001
0100
1000
0100
,
0001
1000
0100
1000
0001
1000
0100
1000
,
0002
0000
0000
0000
0000
0000
0103
0010
1000
0000
0001
0000
0010
0000
0100
0000
,
1000
0010
0001
0000
0001
0010
1000
0000
,
0001
0000
1000
0000
0001
0000
1000
0010
0000
0100
0001
0000
1000
0000
0001
0000
,
0100
0001
0020
0000
1000
0000
0130
0000
,
1001
0000
0000
0000
;

//---------------dance-single - ----------------
#NOTES:
     dance-single:
     :
     Challenge:
     10:
     0.773,0.683,0.063,0.313,0.578,161.000,2.000,10.000,0.000,0.000,0.000,0.773,0.683,0.063,0.313,0.578,161.000,2.000,10.000,0.000,0.000,0.000:
1001
0000
0001
0200
0000
0000
0310
0000
1000
0000
1000
0200
0000
0000
0310
0000
,
0001
0000
0001
0200
0000
0000
0310
0000
1000
0001
1000
0000
0010
0000
0100
0000
,
0001
0000
1000
0200
0000
0000
0301
0000
0100
0000
1000
0020
0000
0000
0031
0000
,
0010
0000
1000
0200
0000
0000
0310
0000
0001
0000
1000
0000
0001
0010
0100
1000
,
0001
0000
0000
0001
0000
0000
1000
0000
0001
0000
0000
0001
0000
0000
1000
0000
,
0001
0000
0000
1000
0000
0000
0010
0000
1000
0001
1000
0000
0010
0000
0010
0000
,
0100
0000
0000
0100
0000
0000
1000
0000
0100
0000
0000
0100
0000
0000
0001
0000
,
0100
0000
0001
1000
0001
0000
1000
0010
1000
0000
0001
0000
0100
0000
0100
0000
,
0020
0000
1000
0000
0000
0000
0100
0000
0030
0000
1000
0100
1000
0000
0001
0000
,
0200
0000
0001
0000
0010
0000
0000
0010
0300
0000
0001
0000
1000
0001
1000
0001
,
1000
0000
0001
0000
0001
0000
1000
0010
0000
0010
1000
0000
0001
0000
1000
0000
,
0100
0000
0100
0000
0010
0000
0001
0100
0000
0100
0000
0100
0001
0000
1000
0000
,
0001
1000
0010
0100
0001
1000
0010
0100
,
0001
0000
1000
0000
0001
0000
1000
0100
0010
0000
0001
0000
1000
0000
0001
0000
,
0001
0000
1000
0000
0001
0000
1000
0010
1000
0000
0001
0000
0100
0000
0001
0000
,
2000
0000
0000
0000
0000
0000
3001
0010
0001
0000
1000
0000
0010
0000
1000
0000
,
0001
0100
0010
1000
0001
0000
0100
0001
0010
0000
0100
1000
0010
0000
1000
0000
,
0100
0000
0100
0000
0001
0000
0100
0001
0000
0001
1000
0000
0001
1000
0001
1000
,
0001
0100
2000
0000
0001
0000
3010
0000
,
1001
0000
0000
0000
;
