#TITLE:Track25;
#SUBTITLE:;
#ARTIST:DJ MURUSAME;
#TITLETRANSLIT:;
#SUBTITLETRANSLIT:;
#ARTISTTRANSLIT:;
#CREDIT:Freezepond;
#BANNER:banner_low.png;
#BACKGROUND:background_low.png;
#LYRICSPATH:;
#CDTITLE:;
#MUSIC:Track25.mp3;
#OFFSET:0.000;
#SAMPLESTART:0.050;
#SAMPLELENGTH:12.000;
#SELECTABLE:YES;
#BPMS:0.000=150.000;
#STOPS:;
#BGCHANGES:;

//---------------dance-single - ----------------
#NOTES:
     dance-single:
     :
     Easy:
     4:
     0.427,0.365,0.696,0.000,0.000:
1001
0000
0000
0000
,
0110
0100
0010
0100
,
0001
0010
1000
0010
,
1001
0001
1000
0001
,
1000
0100
0001
0100
,
1001
0100
1000
0010
,
1001
0010
0001
0100
,
0110
0001
0100
1000
,
0110
0110
0101
0110
;

//---------------dance-single - ----------------
#NOTES:
     dance-single:
     :
     Medium:
     6:
     0.447,0.432,0.278,0.000,0.452:
1001
0000
0000
0000
,
0100
0000
0100
0000
0000
0000
0010
0000
0010
0000
0000
0000
,
1000
0000
0000
0000
1000
0000
0000
0000
0000
0001
0000
0000
0100
0000
0000
0000
0000
0000
0110
0000
0000
0000
0000
0000
,
0001
0000
0001
0000
0000
0000
1000
0000
1000
0000
0000
0000
,
0100
0000
0000
0000
0100
0000
0000
0000
0000
0001
0000
0000
0010
0000
0000
0100
0000
0000
1000
0000
0000
0000
0000
0000
,
0010
0000
0001
0000
0000
0000
0100
0000
1000
0000
0000
0000
,
0010
0000
0000
0000
0001
0000
0000
0000
0000
1000
0000
0000
1010
0000
0000
0000
0000
0000
0110
0000
0000
0000
0000
0000
,
1000
0000
0000
0000
0001
0000
0000
0000
0000
0100
0000
0000
0010
0000
0000
0000
0100
0000
0000
0000
0000
0001
0000
0000
,
1000
0000
0000
0000
1000
0000
0000
0000
0001
0000
0000
0000
0000
0000
0000
0001
0000
0000
0010
0000
0000
0100
0000
0000
;

//---------------dance-single - ----------------
#NOTES:
     dance-single:
     :
     Hard:
     9:
     0.755,0.648,1.000,0.000,0.522:
1001
0000
0000
0000
,
0110
0000
0000
0000
0100
0000
0000
0000
0000
1000
0000
0000
1001
0000
0000
0000
0110
0000
0000
0000
0000
0001
0000
0000
,
1001
0000
0000
0000
0000
0000
0000
0000
0110
0000
0000
0000
0000
0000
0000
0000
0000
0000
1000
0000
0000
0000
0000
0000
0001
0000
0000
1000
0000
0000
0100
0000
0000
0000
0000
0000
0010
0000
0000
0000
0000
0000
0100
0000
0000
0000
0000
0000
,
1100
0000
0000
0000
0100
0000
0000
0000
0000
0010
0000
0000
0011
0000
0000
0000
1100
0000
0000
0000
0000
0010
0000
0000
,
0011
0000
0000
0000
0000
0000
0000
0000
1100
0000
0000
0000
0000
0000
0000
0000
0000
0000
0010
0000
0000
0000
0000
0000
1000
0000
0000
0000
0000
0000
0100
0000
0000
0000
0000
0000
0010
0000
0000
0100
0000
0000
0000
0000
0000
0000
0000
0000
,
1001
0000
0000
0000
0100
0000
0000
0000
0000
1000
0000
0000
1001
0000
0000
0000
0010
0000
0000
0000
0000
0001
0000
0000
,
1001
0000
0000
0000
0000
0000
0000
0000
0100
0000
0000
0000
0000
0000
0000
0000
0000
0000
0001
0000
0000
0000
0000
0000
1000
0000
0000
0001
0000
0000
0010
0000
0000
0000
0000
0000
0100
0000
0000
0000
0000
0000
0010
0000
0000
0000
0000
0000
,
0110
0000
0000
0000
1010
0000
0000
0000
0000
0100
0000
0000
0110
0000
0000
0000
0101
0000
0000
0000
0000
0010
0000
0000
,
0110
0000
0000
0000
1010
0000
0000
0000
0000
1100
0000
0000
0001
0000
0000
0010
0000
0000
0100
0000
0000
0010
0000
0000
;

//---------------dance-single - ----------------
#NOTES:
     dance-single:
     :
     Beginner:
     1:
     0.119,0.111,0.070,0.000,0.000:
1001
0000
0000
0000
,
0100
0000
0000
0000
,
0100
0000
0000
0000
,
0010
0000
0000
0000
,
0010
0000
0000
0000
,
1000
0000
1000
0000
,
1000
0000
0000
0000
,
0001
0000
0001
0000
,
0001
0000
0000
0000
;

//---------------dance-single - ----------------
#NOTES:
     dance-single:
     :
     Challenge:
     10:
     0.974,0.720,0.487,0.696,1.000:
1001
0000
0000
0000
,
1000
0000
1000
0010
0000
0010
0100
0000
0001
0000
0001
0100
0000
0100
0010
0000
,
1000
0000
1000
0100
0000
0100
0001
0000
0010
1000
0100
0000
1001
0000
1010
0000
,
0001
0000
0001
0100
0000
0100
0010
0000
1000
0000
1000
0100
0000
0100
0010
0000
,
0001
0000
0001
1000
0000
1000
0010
0000
0110
0000
0101
0000
0010
0100
1000
0000
,
0001
0000
0001
1000
0000
1000
0100
0000
0010
0000
0010
1000
0000
1000
0001
0000
,
0100
0000
0100
0010
0000
0010
1000
0000
0100
0010
0001
0000
1001
0000
0101
0000
,
0010
0000
0010
1000
0000
1000
0100
0000
0010
0000
0010
0001
0000
0001
0100
0000
,
0020
0000
0000
0000
0000
0000
0000
0000
2000
0000
0000
0030
0020
0000
0000
0000
0000
0000
0000
3000
0002
0000
0000
0030
0020
0000
0000
0000
0000
0000
0000
0003
0200
0000
0000
0030
0020
0000
0000
0000
0000
0000
0000
0300
2000
0000
0000
0030
0020
0000
0000
0000
0000
0000
0000
3000
0200
0000
0000
0000
0000
0000
0000
0000
,
0330
0000
0000
0000
;

//---------------dance-double - ----------------
#NOTES:
     dance-double:
     :
     Challenge:
     10:
     0.904,0.710,0.348,0.348,1.000:
00011000
00000000
00000000
00000000
,
00010000
00000000
00010000
00001000
00000000
00001000
00000100
00000000
00000010
00000000
00000010
00000001
00000000
00000001
00000100
00000000
,
00000010
00000000
00000010
00001000
00000000
00001000
00010000
00000000
00001000
00100000
00010000
00000000
01100000
00000000
01010000
00000000
,
10000000
00000000
10000000
01000000
00000000
01000000
00010000
00000000
00100000
00000000
00100000
00010000
00000000
00010000
00001000
00000000
,
00010000
00000000
00010000
00000010
00000000
00000010
00000100
00000000
00000001
00001000
00000010
00000000
00000010
00000100
00000000
00000000
,
00001000
00000000
00001000
01000000
00000000
01000000
00100000
00000000
10000000
00000000
10000000
01000000
00000000
01000000
00100000
00000000
,
00010000
00000000
00010000
00000100
00000000
00000100
00001000
00000000
00000010
00001000
00000100
00000000
00001100
00000000
00010100
00000000
,
00001000
00000000
00001000
01000000
00000000
01000000
00100000
00000000
10000000
00000000
10000000
01000000
00000000
01000000
00010000
00000000
,
00200000
00000000
00301000
00020000
00000000
00030100
00002000
00000000
00003010
00000200
00000000
00000301
00000020
00000000
00000130
00000000
;

//---------------dance-double - ----------------
#NOTES:
     dance-double:
     :
     Hard:
     9:
     0.785,0.689,1.000,0.070,0.557:
00011000
00000000
00000000
00000000
,
00011000
00000000
00000000
00000000
00101000
00000000
00000000
00000000
00000000
00010000
00000000
00000000
00011000
00000000
00000000
00000000
00010100
00000000
00000000
00000000
00000000
00001000
00000000
00000000
,
00011000
00000000
00000000
00000000
00000000
00000000
00000000
00000000
00101000
00000000
00000000
00000000
00000000
00000000
00000000
00000000
00000000
00000000
00001000
00000000
00000000
00000000
00000000
00000000
00010000
00000000
00000000
00001000
00000000
00000000
00010000
00000000
00000000
00000000
00000000
00000000
00000100
00000000
00000000
00000000
00000000
00000000
00000010
00000000
00000000
00000000
00000000
00000000
,
00000110
00000000
00000000
00000000
00001010
00000000
00000000
00000000
00000000
00000100
00000000
00000000
00000110
00000000
00000000
00000000
00000101
00000000
00000000
00000000
00000000
00000010
00000000
00000000
,
00000110
00000000
00000000
00000000
00000000
00000000
00000000
00000000
00001010
00000000
00000000
00000000
00000000
00000000
00000000
00000000
00000000
00000000
00001000
00000000
00000000
00000000
00000000
00000000
00010000
00000000
00000000
00000000
00000000
00000000
00100000
00000000
00000000
00000000
00000000
00000000
01000000
00000000
00000000
10000000
00000000
00000000
00000000
00000000
00000000
00000000
00000000
00000000
,
01100000
00000000
00000000
00000000
01010000
00000000
00000000
00000000
00000000
00100000
00000000
00000000
01100000
00000000
00000000
00000000
10100000
00000000
00000000
00000000
00000000
01000000
00000000
00000000
,
01100000
00000000
00000000
00000000
00000000
00000000
00000000
00000000
01010000
00000000
00000000
00000000
00000000
00000000
00000000
00000000
00000000
00000000
00100000
00000000
00000000
00000000
00000000
00000000
00010000
00000000
00000000
00100000
00000000
00000000
00001000
00000000
00000000
00000000
00000000
00000000
00010000
00000000
00000000
00000000
00000000
00000000
00001000
00000000
00000000
00000000
00000000
00000000
,
00011000
00000000
00000000
00000000
00110000
00000000
00000000
00000000
00000000
00100000
00000000
00000000
00011000
00000000
00000000
00000000
00001100
00000000
00000000
00000000
00000000
00000100
00000000
00000000
,
00021000
00000000
00000000
00000000
00100000
00000000
00000000
00000000
01000000
00000000
00000000
00000000
00000000
00000000
00000000
00001000
00000000
00000000
00001000
00000000
00000000
00001000
00000000
00000000
,
00030000
00000000
00000000
00000000
;

//---------------dance-double - ----------------
#NOTES:
     dance-double:
     :
     Medium:
     7:
     0.547,0.532,0.626,0.070,0.139: // measure 1
00011000
00000000
00000000
00000000
,  // measure 2
00001000
00100000
00010000
00000000
00001000
00000100
00010000
00000000
,  // measure 3
00001000
00100000
00010000
00000000
00001000
00000000
00011000
00000000
,  // measure 4
00001000
00000100
00010000
00000000
00001000
00100000
00010000
00000000
,  // measure 5
00001000
00000100
00010000
00000000
00011000
00000000
01100000
00000000
,  // measure 6
00100000
00010000
00001000
00000000
00000100
00001000
00010000
00000000
,  // measure 7
00100000
00010000
00001000
00000000
00011000
00000000
00000110
00000000
,  // measure 8
00011000
00000000
00000000
00000000
00100000
00000000
00000000
00000000
00000000
00010000
00000000
00000000
00011000
00000000
00000000
00000000
00000100
00000000
00000000
00000000
00000000
00001000
00000000
00000000
,  // measure 9
00021000
00000000
00000000
00000000
00001000
00000000
00000000
00000000
00001000
00000000
00000000
00000000
00000000
00000000
00000000
00001000
00000000
00000000
00001000
00000000
00000000
00000000
00000000
00000000
,  // measure 10
00030000
00000000
00000000
00000000
;

//---------------dance-double - ----------------
#NOTES:
     dance-double:
     :
     Easy:
     5:
     0.398,0.365,0.348,0.000,0.070: // measure 1
00011000
00000000
00000000
00000000
,  // measure 2
00010000
00010000
00000100
00000100
,  // measure 3
00001000
00000000
00001000
00000000
00010000
00001000
00010000
00000000
,  // measure 4
00001000
00001000
00100000
00100000
,  // measure 5
00010000
00000000
00010000
00000000
00001000
00010000
00001000
00000000
,  // measure 6
00010000
01100000
10000000
01010000
,  // measure 7
00001000
00000110
00000001
00001010
,  // measure 8
00010000
00000000
00010000
00000000
00000000
00000000
00001000
00000000
00001000
00000000
00000000
00000000
,  // measure 9
00010000
00000100
00001000
00100000
;
