#TITLE:Track 24;
#ARTIST:DJ MURASAME;
#GENRE:Lounge;
#CREDIT:A. Michaelangelo;
#BANNER:Track24 [AeronPeryton].png;
#BACKGROUND:Track24 [AeronPeryton]-bg.png;
#CDTITLE:cdtitle.png;
#MUSIC:Track24 [AeronPeryton].mp3;
#OFFSET:-0.028;
#SAMPLESTART:0.001;
#SAMPLELENGTH:15.000;
#BPMS:0.000=150.000;
#NOTES:dance-single:A. Michaelangelo:Beginner:2::
1001
0000
0000
0000
,
0000
0010
0000
0010
,
0000
0000
0000
0000
,
0000
0000
0000
0000
,
0100
0000
0000
0000
,
0000
0100
0000
0100
,
0000
0000
0000
0000
,
0000
0000
0000
0000
,
0010
0000
0000
0000
,
0000
0001
0000
0001
,
0000
0000
0000
0000
,
0000
0000
0000
0000
,
0100
0000
0000
0000
,
0000
1000
0000
0001
,
0000
0000
0000
0000
,
0000
0010
0000
0000
,
1000
0000
0100
0000
,
1000
0000
0001
0000
,
0010
0000
0001
0000
,
1000
0000
0010
0000
,
0100
0000
0010
0000
,
1000
0000
0001
0000
,
0001
0000
1000
0000
,
1000
0000
0010
0000
,
1000
0000
0100
0000
,
0001
0000
0100
0000
,
0010
0000
0001
0000
,
0100
0000
1000
0000
,
0010
0000
0010
0000
,
1000
0000
0100
0000
,
0010
0000
1000
0000
,
0001
0000
1000
0000
,
0001
0000
0000
0000
,
0000
0000
0000
0000
,
0001
0000
0000
0000
,
0001
0000
0000
0000
,
0001
0000
0000
0000
,
0100
0000
0000
0000
;
#NOTES:dance-single:A. Michaelangelo:Easy:4::
1001
0001
1000
0010
,
0000
0010
0000
0010
,
0000
1000
0001
1000
,
0000
0001
1000
0000
,
0010
0001
1000
0001
,
0000
0100
0000
0100
,
0000
0010
0100
0010
,
0000
0100
0010
0000
,
1000
0100
1000
0001
,
0000
0001
0000
0001
,
0000
0010
1000
0001
,
0000
0100
0001
0000
,
0001
0010
0001
0100
,
0000
0100
0000
0200
,
0000
0000
0000
0300
,
0000
0100
0000
0000
,
1001
1000
1000
1000
,
0000
0010
0100
0001
,
1001
1000
1000
1000
,
0000
0100
0010
0001
,
0110
0010
0010
0010
,
0000
1000
0010
0100
,
0101
0001
0100
0000
,
0000
0101
0001
0100
,
1001
1000
1000
1000
,
0000
0001
1000
0001
,
1001
0001
0001
0001
,
0000
0100
1000
0010
,
0110
0010
0100
0010
,
0000
1000
0100
0010
,
1100
1000
0101
0001
,
1100
0100
0010
0001
,
2000
0000
0000
3000
,
0002
0000
0000
0003
,
0200
0000
0000
0300
,
0020
0000
0000
0030
,
0100
0010
0100
0010
,
0100
0000
0000
0000
;
#NOTES:dance-single:A. Michaelangelo:Medium:5::
1001
0000
0001
1000
0000
0010
1000
0000
,
0000
2000
3000
0002
,
0003
1000
0010
1000
,
0100
0010
0001
1000
,
0010
0000
0100
0001
0000
1000
0100
0000
,
0000
0002
0003
2000
,
3000
0010
0100
0001
,
0100
0010
1000
0100
,
0010
0000
0001
0100
0000
0010
1000
0000
,
0000
2000
3000
0002
,
0003
0100
0001
1000
,
0100
1000
0001
0100
,
0010
0000
1000
0001
0000
0001
1000
0000
,
0000
0200
0300
0020
,
0030
0100
0001
1000
,
0100
2000
3000
0000
,
1000
0010
1000
0000
0001
0000
0100
0000
,
0010
2000
3000
0002
,
0003
0100
0100
0010
,
0010
1000
0100
0010
,
0001
1000
0100
0000
0010
0000
0001
0000
,
0100
0002
0003
2000
,
3000
0010
0010
0001
,
0001
0010
1000
0010
,
0100
0010
0100
0000
0001
0000
0010
0000
,
0100
2000
3000
0020
,
0030
1000
1000
0100
,
0100
0010
0001
1000
,
0100
0010
0001
0000
0100
0000
0001
0000
,
1000
2002
3003
0001
,
0001
0220
0330
1000
,
0100
0001
0100
1000
,
0201
0300
1020
0000
,
0100
0000
0000
0000
,
0100
0000
0000
0000
,
0100
0000
0000
0000
,
0100
0000
0000
0000
0000
0130
0000
0000
,
0000
0110
0000
0000
0000
0000
0000
0000
;
#NOTES:dance-single:A. Michaelangelo:Hard:7::
1001
0000
0100
0010
0001
0100
0010
0000
,
0000
2000
3000
0002
,
0003
0000
1000
0000
0010
0100
0001
0000
,
0100
0000
0010
0000
1000
0001
0100
0000
,
0010
1000
0001
1000
0100
0010
0001
0000
,
0000
0002
0003
2000
,
3000
0000
0100
0000
1000
0010
1000
0000
,
0100
0000
0010
0000
0001
1000
0100
0000
,
0010
0001
0100
0001
1000
0100
0010
0000
,
0000
2000
3000
0002
,
0003
0000
1000
0000
1000
0100
0001
0000
,
0001
0000
0100
0000
0010
0001
1000
0000
,
0010
0100
0010
1000
0001
0100
0010
0000
,
0000
0200
0300
0020
,
0030
0100
0001
1000
,
0100
2000
3000
0000
,
1000
0010
0100
0001
0000
0010
0100
0000
,
0000
0100
1000
0010
1000
0100
0010
0001
,
1000
0100
0001
0100
0000
0010
0001
0000
,
0000
0100
0010
1000
0100
0010
0100
0010
,
0001
0100
1000
0010
0001
1000
0001
0000
,
0000
1000
0010
0100
0001
1000
0010
1000
,
0001
0010
1000
0010
0000
1000
0010
0000
,
0000
0001
1000
0100
0010
0001
1000
0100
,
0100
1000
0010
0100
0000
0001
0100
0000
,
0000
1000
0001
1000
0010
0100
0010
1000
,
0001
0100
0010
1000
0000
0010
1000
0000
,
0000
0100
0001
0010
0001
0100
0010
0010
,
1000
0100
0010
1000
0000
0001
0100
0000
,
0000
0100
1000
0010
0001
0010
1000
0100
,
0010
0100
0010
0100
1000
0001
1000
0001
,
0000
0010
0001
0100
0010
1000
0001
0100
,
0020
0000
1000
0000
,
0000
0000
0100
0000
,
0000
0000
1000
0000
,
0001
0000
1030
0000
,
1000
0000
0100
0000
0010
0000
0000
0000
0010
0000
0100
1000
0001
0000
0000
0000
,
0100
1000
0001
0000
0000
0000
0000
0000
0000
0000
0000
0000
0000
0000
0000
0000
;
