#TITLE:Track21;
#SUBTITLE:;
#ARTIST:DJ MURASAME;
#TITLETRANSLIT:;
#SUBTITLETRANSLIT:;
#ARTISTTRANSLIT:;
#GENRE:;
#CREDIT:Telperion;
#BANNER:track21-bn.png;
#BACKGROUND:track21-bq.png;
#LYRICSPATH:;
#CDTITLE:;
#MUSIC:Track21.mp3;
#OFFSET:-0.020;
#SAMPLESTART:0.027;
#SAMPLELENGTH:25.600;
#SELECTABLE:YES;
#DISPLAYBPM:75.000;
#BPMS:0.000=75.000
;
#STOPS:
;
#BGCHANGES:;
#KEYSOUNDS:;
#ATTACKS:;

//---------------dance-single - ----------------
#NOTES:
     dance-single:
     :
     Hard:
     8:
     0.494,0.485,0.254,0.293,0.420,149.000,13.000,15.000,22.000,0.000,0.000,0.494,0.485,0.254,0.293,0.420,149.000,13.000,15.000,22.000,0.000,0.000:
10M2
0000
0203
0000
0300
0001
1000
0010
,
20M1
3200
0300
0011
,
21M0
0000
3002
0100
0103
0001
0100
0010
,
20M0
0000
0000
0000
0000
0000
0000
0000
3002
0000
0000
0000
0000
0000
0000
0000
0M13
0000
0000
0000
0010
0000
0000
0000
0100
0000
0000
1000
0000
0100
1000
0000
,
00M2
0000
1003
0100
0010
0000
0001
0000
0010
0000
0001
1000
0001
0000
0010
0000
,
0001
0000
0100
0001
1000
0000
0010
0000
0010
0000
1000
0000
1002
0000
0013
0000
,
M120
0000
0130
0000
1000
0000
0010
1000
0010
0000
0100
0001
0000
0000
0100
0000
,
1M20
1030
0001
1000
M100
0000
0M12
0000
,
10M3
0001
1000
0000
0000
0000
0010
1000
0010
1000
0001
0000
0000
0000
0010
0100
,
0010
0100
1000
0000
0000
0000
0001
1000
0001
0100
0001
0000
10M0
0000
0000
0000
,
M110
0100
0001
0000
0000
0000
1000
0001
M010
0100
0010
0000
0000
0000
0100
1000
,
00M1
1000
0001
0000
0000
0000
0100
0001
01M0
0000
0110
0000
0010
0000
1000
0000
,
1MM1
0000
0001
0000
1000
0000
0000
0100
1000
0000
0100
0000
0010
0000
0001
0000
1000
0000
0000
0000
0001
0000
0000
0100
0001
0000
1000
0000
0001
0000
1000
0000
,
0M10
0000
0000
0000
1000
0000
0000
0010
0100
0000
0001
0000
0100
0000
0001
0000
1000
0000
0000
0000
0001
0000
0001
0000
0010
0000
0000
0000
0100
0000
0000
0000
,
10M1
0000
1000
0000
0001
0000
0000
0100
0001
0000
0100
0000
0010
0000
1000
0000
0001
0000
0000
0000
0010
0000
0000
0000
1020
0000
0000
0000
0100
0000
0000
0000
,
0M31
0000
0000
0000
1000
0000
0000
0001
0100
0000
0001
0000
0010
0000
0001
0000
1M00
0000
0000
0000
0001
0000
1000
0100
0010
0000
0100
1000
0200
0000
0000
0000
,
0300
0000
0000
0000
;

//---------------dance-single - ----------------
#NOTES:
     dance-single:
     :
     Medium:
     6:
     0.324,0.391,0.215,0.254,0.088,92.000,11.000,13.000,0.000,0.000,0.000,0.324,0.391,0.215,0.254,0.088,92.000,11.000,13.000,0.000,0.000,0.000:
2002
0000
0000
0000
,
3000
0000
0000
0023
,
0200
0000
0030
0000
,
2000
0300
3020
0030
,
1002
0000
0010
0000
1003
0001
1000
0010
,
0100
0000
0001
0000
1000
0000
0001
0010
,
0200
0000
0010
0000
1300
0001
1000
0000
,
1020
0130
0102
0013
,
1200
0000
1000
0000
0000
0000
1300
0000
0100
0000
1000
0100
0000
0000
0100
0000
,
1000
0001
0000
0001
0100
0001
0110
0010
,
1000
0000
0001
0000
0000
0000
0001
0000
0010
0000
0001
0010
0000
0000
0010
0000
,
0001
1000
0000
1000
0010
0020
0130
0001
,
0011
0010
0100
0000
0010
0000
0100
0000
1000
0000
0001
0000
1000
0000
0001
0000
,
1100
0000
1000
0001
1000
0000
0001
0000
1000
0000
0001
0000
0100
0000
0010
0000
,
1010
0010
0100
0000
0001
0000
0100
0000
0001
0000
0100
0000
1000
0000
0001
0000
,
0110
0000
0000
0000
0100
0000
0001
0000
0100
0000
0000
0000
0001
0000
0000
0000
1001
0000
0000
0000
1000
0000
0001
0010
0001
0000
1000
0000
0200
0000
0000
0000
,
0300
0000
0000
0000
;

//---------------dance-single - ----------------
#NOTES:
     dance-single:
     :
     Easy:
     2:
     0.098,0.091,0.039,0.000,0.000,33.000,2.000,0.000,0.000,0.000,0.000,0.098,0.091,0.039,0.000,0.000,33.000,2.000,0.000,0.000,0.000,0.000:
1001
0000
0000
0000
,
1000
0000
0000
0010
,
0100
0000
0000
0000
,
0001
0000
1000
0000
,
0001
0000
0000
0000
,
0001
0000
0000
0010
,
0100
0000
0000
0000
,
1000
0000
0001
0100
,
1000
0000
1000
0000
,
1000
0000
1000
0001
,
0100
0000
0100
0000
,
0001
0000
0001
1000
,
1010
0000
0100
0000
,
0001
0000
1000
0100
,
0010
0000
0100
0001
,
1000
0000
1000
0000
;

//---------------dance-double - ----------------
#NOTES:
     dance-double:
     :
     Hard:
     8:
     0.402,0.405,0.215,0.254,0.274,120.000,11.000,13.000,8.000,0.000,0.000,0.402,0.405,0.215,0.254,0.274,120.000,11.000,13.000,8.000,0.000,0.000:
00021000
00001000
00000200
00030300
,
00012000
00010000
01003000
01100000
,
01020000
00000000
20030000
00000000
,
32000000
00000000
00000000
00000000
00000000
00000000
00000000
00000000
03200000
00000000
00000000
00000000
00310000
00100000
00010000
00100000
,
00002000
00000000
00010000
00000000
01003000
00010000
01000000
00100000
,
20000000
00000000
00010000
00000000
31000000
00100000
01000000
00010000
,
00021000
00000000
00001000
00000000
00030100
00001000
00000100
00001000
,
00000020
00000000
00001000
00000030
000002M0
00000000
00000301
00000000
,
00001001
00000001
00001000
00000000
00000000
00000000
00000100
00010000
00000100
00010000
00001000
00000000
00000000
00000000
01000000
00001000
,
01000000
00001000
00010000
00000000
00000000
00000000
00000100
00010000
00001000
00010000
00001000
00000000
00100000
00000000
00000000
00000000
,
00011000
00001000
00010000
00000000
00000000
00000000
00001000
00010000
00001000
01000000
00010000
00000000
00000000
00000000
01000000
00010000
,
10000000
00010000
10000000
00000000
00000000
00000000
00100000
10000000
00010000
00000000
00010000
00000000
00100000
00000000
01000000
00000000
,
10M1M000
10000000
00010000
00000000
00100000
00001000
00100000
00001000
00010000
00000000
00010000
00000000
00001000
00010000
00001000
00010000
,
00000M10
00000000
00001000
00000000
00000001
00001000
00000001
00001000
00000100
00000000
00001000
00000000
00000010
00000000
00010000
00000000
,
00M11M00
00001000
00010000
00000000
00000100
00010000
00000100
00010000
00001000
00000000
00001000
00000000
00100000
00000000
01000000
00000000
,
110M0000
00000000
00000000
00000000
10000000
00000000
00000000
00000000
00100000
00000000
00000000
00000000
00010000
00000000
00000000
00000000
0M011000
00000000
00000000
00000000
00001000
00000000
01000000
00001000
00010000
00000000
00001000
00000000
00020000
00000000
00030000
00000000
;

//---------------dance-double - ----------------
#NOTES:
     dance-double:
     :
     Medium:
     5:
     0.251,0.264,0.078,0.117,0.000,80.000,4.000,6.000,0.000,0.000,0.000,0.251,0.264,0.078,0.117,0.000,80.000,4.000,6.000,0.000,0.000,0.000:
00021000
00000000
00000000
00000000
,
00030200
00000000
00000000
00001300
,
00000002
00000000
00000203
00000000
,
00002300
00000000
00023000
00030000
,
00011000
00001000
01000000
01000000
,
00010000
00000000
10000000
00000000
00010000
00000000
00100000
00010000
,
01000000
00010000
01000000
00010000
,
00100000
00001000
00010000
00000010
,
00011000
00001000
00000000
00001000
00000100
00001000
00000000
00000100
,
00000010
00000100
00000000
00000001
00000100
00000001
00001000
00000000
,
00000100
00001000
00000000
00000100
00010000
00000100
00000000
00010000
,
00001000
00010000
00000000
00001000
01000000
00010000
00000000
01000000
,
00011000
00001000
01000000
00001000
01000000
00010000
01000000
00010000
,
10000000
01000000
10000000
01000000
00100000
00010000
10000000
01000000
,
00010000
00001000
00010000
00001000
00010000
00000100
00000010
00000001
,
00000100
00000001
00000100
00000010
00001000
00000010
00010000
00001000
;

//---------------dance-double - ----------------
#NOTES:
     dance-double:
     :
     Easy:
     2:
     0.081,0.077,0.020,0.000,0.000,28.000,1.000,0.000,0.000,0.000,0.000,0.081,0.077,0.020,0.000,0.000,28.000,1.000,0.000,0.000,0.000,0.000: // measure 0
00011000
00000000
00000000
00000000
,  // measure 1
00001000
00000000
00000000
00001000
,  // measure 2
01000000
00000000
00000000
00000000
,  // measure 3
00010000
00000000
00100000
00000000
,  // measure 4
01000000
00000000
00000000
00000000
,  // measure 5
10000000
00000000
10000000
00010000
,  // measure 6
01000000
00000000
00000000
00000000
,  // measure 7
00001000
00000000
00000000
00001000
,  // measure 8
00010000
00000000
00000000
00000000
,  // measure 9
00001000
00000000
00000000
00010000
,  // measure 10
00000100
00000000
00000000
00000000
,  // measure 11
00001000
00000000
00000000
00000001
,  // measure 12
00000010
00000000
00000100
00000000
,  // measure 13
00001000
00000000
00000001
00001000
,  // measure 14
00000010
00000000
00000000
00000000
,  // measure 15
00010000
00000000
00001000
00010000
;
