#VERSION:0.81;
#TITLE:Track20;
#SUBTITLE:;
#ARTIST:DJ MURASAME;
#TITLETRANSLIT:;
#SUBTITLETRANSLIT:;
#ARTISTTRANSLIT:;
#GENRE:;
#ORIGIN:;
#CREDIT:;
#BANNER:Track20 [~SilverStar~].bn.png;
#BACKGROUND:Track20 [~SilverStar~].bg.png;
#PREVIEWVID:;
#JACKET:Track20 [~SilverStar~].jacket.png;
#CDIMAGE:;
#DISCIMAGE:;
#LYRICSPATH:;
#CDTITLE:;
#MUSIC:Track20.mp3;
#OFFSET:-0.020;
#SAMPLESTART:0.000;
#SAMPLELENGTH:12.000;
#SELECTABLE:YES;
#BPMS:0.000=150.000;
#STOPS:;
#DELAYS:;
#WARPS:;
#TIMESIGNATURES:0.000=4=4;
#TICKCOUNTS:0.000=4;
#COMBOS:0.000=1;
#SPEEDS:0.000=1.000=0.000=0;
#SCROLLS:0.000=1.000;
#FAKES:;
#LABELS:0.000=Song Start;
#BGCHANGES:;
#KEYSOUNDS:;
#ATTACKS:
;

//---------------dance-single - ~SilverStar~----------------
#NOTEDATA:;
#CHARTNAME:;
#STEPSTYPE:dance-single;
#DESCRIPTION:~SilverStar~;
#CHARTSTYLE:Pad;
#DIFFICULTY:Hard;
#METER:7;
#RADARVALUES:0.637,0.466,0.151,0.227,0.472,108.000,4.000,6.000,0.000,0.000,0.000,0.000,0.000,0.637,0.466,0.151,0.227,0.472,108.000,4.000,6.000,0.000,0.000,0.000,0.000,0.000;
#CREDIT:~SilverStar~;
#OFFSET:0.000;
#BPMS:0.000=150.000
;
#STOPS:;
#DELAYS:;
#WARPS:;
#TIMESIGNATURES:0.000=4=4
;
#TICKCOUNTS:0.000=4
;
#COMBOS:0.000=1
;
#SPEEDS:0.000=1.000=0.000=0
;
#SCROLLS:0.000=1.000
;
#FAKES:;
#LABELS:0.000=Song Start
;
#NOTES:
1002
0000
0003
1000
0010
0000
0000
0000
0010
0000
1000
0000
0001
0000
0000
0000
,
0010
0000
0000
0010
0100
0000
0000
0100
1000
0000
0000
1000
0001
0000
0000
0000
,
0100
0000
0000
0100
0010
0000
0000
0000
1000
0000
0100
0000
0010
0000
0000
0000
,
0001
0000
0000
0001
1000
0000
0000
1000
0010
0000
0000
0010
0100
0000
0000
0000
,
0012
0000
0003
0010
0001
0000
0000
0000
1000
0000
0001
0000
0100
0000
0000
0000
,
0010
0000
0000
0010
1000
0000
0000
1000
0001
0000
0000
0001
1000
0000
0000
0000
,
0100
0000
0000
0100
1000
0000
0000
0000
0010
0000
0100
0000
0001
0000
0000
0000
,
1000
0010
0100
0001
1000
0100
0010
0100
,
1200
0000
0300
1000
0010
0000
0000
0000
0100
0000
0001
0000
1000
0000
0000
0000
,
0001
0000
0000
0001
0010
0000
0000
0010
1000
0000
0000
1000
0010
0000
0000
0000
,
0001
0000
0000
0001
1000
0000
0000
0000
0010
0000
0100
0000
0001
0000
0000
0000
,
1000
0000
0000
1000
0100
0000
0000
0100
0001
0000
0000
0001
0100
0000
0000
0000
,
0120
0000
0030
0100
0010
0000
0000
0000
0001
0000
1000
0000
0100
0000
0000
0000
,
0010
0000
0000
0010
0001
0000
0000
0001
0100
0000
0000
0100
0001
0000
0000
0000
,
1000
0010
1000
0000
0001
0100
0001
0000
,
1000
0100
0010
0001
1000
0010
1000
0001
,
0020
0000
0000
0000
0200
0000
0000
0330
0000
0000
0000
0000
0000
0000
0000
0000
;

//---------------dance-single - ~SilverStar~----------------
#NOTEDATA:;
#CHARTNAME:;
#STEPSTYPE:dance-single;
#DESCRIPTION:~SilverStar~;
#CHARTSTYLE:Pad;
#DIFFICULTY:Medium;
#METER:6;
#RADARVALUES:0.599,0.466,0.302,0.378,0.000,93.000,8.000,10.000,0.000,0.000,0.000,0.000,0.000,0.599,0.466,0.302,0.378,0.000,93.000,8.000,10.000,0.000,0.000,0.000,0.000,0.000;
#CREDIT:~SilverStar~;
#NOTES:
1002
0000
0013
0000
0100
1000
0001
0000
,
0010
0001
1000
0000
0010
0100
0001
0000
,
0021
0000
0130
0000
1000
0001
0100
0000
,
0010
1000
0001
0000
0010
0100
1000
0000
,
1020
0000
0130
0000
0001
1000
0100
0000
,
0010
0001
1000
0000
0010
1000
0100
0000
,
0120
0000
0031
0000
1000
0010
0100
0000
,
0001
0010
0100
1000
0001
1000
0010
0000
,
2010
0000
3100
0000
0010
0100
1000
0000
,
0001
0100
0010
0000
1000
0001
0010
0000
,
1200
0000
0310
0000
0001
1000
0010
0000
,
1000
0001
0100
0000
0010
1000
0100
0000
,
0012
0000
1003
0000
0010
1000
0001
0000
,
0100
0010
1000
0000
0001
0010
0100
0000
,
2100
0000
3001
0000
0010
0001
1000
0000
,
0010
0100
0001
1000
0001
0010
0100
1000
,
0002
0000
0000
0000
0200
0000
0000
0303
0000
0000
0000
0000
0000
0000
0000
0000
;

//---------------dance-single - ~SilverStar~----------------
#NOTEDATA:;
#CHARTNAME:;
#STEPSTYPE:dance-single;
#DESCRIPTION:~SilverStar~;
#CHARTSTYLE:Pad;
#DIFFICULTY:Easy;
#METER:4;
#RADARVALUES:0.405,0.278,0.567,0.076,0.000,58.000,15.000,2.000,0.000,0.000,0.000,0.000,0.000,0.405,0.278,0.567,0.076,0.000,58.000,15.000,2.000,0.000,0.000,0.000,0.000,0.000;
#CREDIT:~SilverStar~;
#NOTES:
1001
0100
0010
0000
,
1100
0010
0001
1000
,
1010
0010
0100
0000
,
0011
0100
1000
0001
,
0101
0010
1000
0000
,
1010
0100
0010
0001
,
1001
1000
0010
0000
,
0101
0010
1000
0100
,
0011
0100
1000
0000
,
0101
0010
1000
0001
,
0011
0100
1000
0000
,
1001
0010
0100
0001
,
1100
0010
0001
0000
,
1010
0100
0001
1000
,
0001
0010
0100
1000
,
0010
1000
0001
0010
,
0220
0000
0000
0330
0000
0000
0000
0000
;

//---------------dance-double - ~SilverStar~----------------
#NOTEDATA:;
#CHARTNAME:;
#STEPSTYPE:dance-double;
#DESCRIPTION:~SilverStar~;
#CHARTSTYLE:Pad;
#DIFFICULTY:Hard;
#METER:7;
#RADARVALUES:0.686,0.559,0.340,0.416,0.510,107.000,9.000,11.000,0.000,0.000,0.000,0.000,0.000,0.686,0.559,0.340,0.416,0.510,107.000,9.000,11.000,0.000,0.000,0.000,0.000,0.000;
#CREDIT:~SilverStar~;
#NOTES:
// measure 0
10200000
00000000
00300000
10000000
00010000
00000000
00000000
00000000
01000000
00000000
00001000
00000000
00010000
00000000
00000000
00000000
,  // measure 1
00000010
00000000
00000000
00000010
00001000
00000000
00000000
00001000
00000001
00000000
00000000
00000001
00000010
00000000
00000000
00000000
,  // measure 2
00002100
00000000
00003000
00000100
00010000
00000000
00000000
00000000
00001000
00000000
00100000
00000000
00010000
00000000
00000000
00000000
,  // measure 3
10000000
00000000
00000000
10000000
00100000
00000000
00000000
00100000
10000000
00000000
00000000
10000000
00010000
00000000
00000000
00000000
,  // measure 4
00012000
00000000
00000000
00013000
00000100
00000000
00000000
00000000
00001000
00000000
00000010
00000000
00000100
00000000
00000000
00000000
,  // measure 5
00000001
00000000
00000000
00000001
00001000
00000000
00000000
00001000
00000100
00000000
00000000
00000100
00010000
00000000
00000000
00000000
,  // measure 6
01002000
00000000
00003000
01000000
00100000
00000000
00000000
00000000
10000000
00000000
00010000
00000000
00100000
00000000
00000000
00000000
,  // measure 7
00001000
00010000
00000010
00000100
00000001
00000010
00000100
00000000
,  // measure 8
00012000
00000000
00003000
00010000
00000100
00000000
00000000
00000000
00000010
00000000
00000001
00000000
00000100
00000000
00000000
00000000
,  // measure 9
00000001
00000000
00000000
00000001
00001000
00000000
00000000
00001000
00000100
00000000
00000000
00000100
00010000
00000000
00000000
00000000
,  // measure 10
00102000
00000000
00003000
00100000
01000000
00000000
00000000
00000000
10000000
00000000
00010000
00000000
01000000
00000000
00000000
00000000
,  // measure 11
00001000
00000000
00000000
00001000
00010000
00000000
00000000
00010000
00000100
00000000
00000000
00000100
00000010
00000000
00000000
00000000
,  // measure 12
00000021
00000000
00000030
00000001
00000100
00000000
00000000
00000000
00000010
00000000
00001000
00000000
00000100
00000000
00000000
00000000
,  // measure 13
00010000
00000000
00000000
00010000
01000000
00000000
00000000
01000000
10000000
00000000
00000000
10000000
00010000
00000000
00000000
00000000
,  // measure 14
00120000
00000000
00030000
00100000
00001000
00000000
00000000
00000000
00021000
00000000
00030000
00001000
01000000
00000000
00000000
00000000
,  // measure 15
00001000
00010000
00000100
00000010
00000001
00001000
00000010
00001000
,  // measure 16
00000200
00000000
00000000
00000000
00020000
00000000
00000000
00030300
00000000
00000000
00000000
00000000
00000000
00000000
00000000
00000000
;

//---------------dance-double - ~SilverStar~----------------
#NOTEDATA:;
#CHARTNAME:;
#STEPSTYPE:dance-double;
#DESCRIPTION:~SilverStar~;
#CHARTSTYLE:Pad;
#DIFFICULTY:Medium;
#METER:6;
#RADARVALUES:0.632,0.464,0.302,0.378,0.000,99.000,8.000,10.000,0.000,0.000,0.000,0.000,0.000,0.632,0.464,0.302,0.378,0.000,99.000,8.000,10.000,0.000,0.000,0.000,0.000,0.000;
#CREDIT:~SilverStar~;
#NOTES:
10020000
00000000
01030000
00000000
00100000
01000000
00010000
00000000
,
00100000
00001000
00010000
00000100
00000010
00000001
00000100
00000000
,
00000210
00000000
00000301
00000000
00000010
00000100
00001000
00000000
,
00010000
00001000
01000000
00100000
10000000
00010000
00100000
00000000
,
12000000
00000000
03100000
00000000
00010000
01000000
00001000
00000000
,
00000010
00000001
00001000
00000001
00000010
00000100
00000010
00000000
,
00000201
00000000
00000310
00000000
00001000
00000100
00010000
00000000
,
00001000
01000000
00010000
00100000
10000000
00100000
00010000
00000000
,
00001020
00000000
00000130
00000000
00000001
00001000
00000010
00000000
,
00000100
00000001
00001000
00000010
00010000
00000100
00001000
00000000
,
02010000
00000000
03100000
00000000
00010000
10000000
00100000
00000000
,
01000000
00010000
00100000
00001000
00010000
00000100
00000010
00000000
,
00001200
00000000
00010300
00000000
00001000
01000000
00100000
00000000
,
10000000
00010000
01000000
00010000
00100000
01000000
10000000
00000000
,
10020000
00000000
01030000
00000000
00001000
00010000
00000100
00000000
,
00000010
00000001
00001000
00000010
00010000
00001000
01000000
00100000
,
20000000
00000000
02000000
33000000
00000000
00000000
00000000
00000000
;

//---------------dance-double - ~SilverStar~----------------
#NOTEDATA:;
#CHARTNAME:;
#STEPSTYPE:dance-double;
#DESCRIPTION:~SilverStar~;
#CHARTSTYLE:Pad;
#DIFFICULTY:Easy;
#METER:4;
#RADARVALUES:0.443,0.309,0.302,0.340,0.000,65.000,8.000,9.000,0.000,0.000,0.000,0.000,0.000,0.443,0.309,0.302,0.340,0.000,65.000,8.000,9.000,0.000,0.000,0.000,0.000,0.000;
#CREDIT:~SilverStar~;
#NOTES:
10200000
01300000
00010000
00100000
,
00001000
00010000
00000100
00000010
,
00000012
00000103
00000010
00001000
,
00000100
00010000
00001000
00100000
,
02100000
13000000
00100000
10000000
,
00010000
00100000
01000000
00100000
,
00012000
00013000
00000100
00000010
,
00000001
00001000
00000100
00010000
,
00012000
00103000
00010000
10000000
,
00100000
10000000
01000000
00100000
,
00210000
00301000
00010000
00000100
,
00000010
00000001
00001000
00000010
,
00020100
00031000
00100000
01000000
,
10000000
00010000
01000000
00001000
,
00100000
00010000
00000010
00000100
,
00001000
00000001
00000100
00000010
,
00002200
00000000
00000000
00003300
00000000
00000000
00000000
00000000
;
