#TITLE:Track19;
#SUBTITLE:;
#ARTIST:DJ MURASAME;
#TITLETRANSLIT:;
#SUBTITLETRANSLIT:;
#ARTISTTRANSLIT:;
#GENRE:;
#CREDIT:joe#2;
#BANNER:track19-bn.png;
#BACKGROUND:track19-bg.png;
#LYRICSPATH:;
#CDTITLE:;
#MUSIC:Track19.mp3;
#OFFSET:-0.022;
#SAMPLESTART:0.000;
#SAMPLELENGTH:12.000;
#SELECTABLE:YES;
#BPMS:0.000=150.000;
#STOPS:;
#BGCHANGES:;
#KEYSOUNDS:;

//---------------dance-single - JOE2----------------
#NOTES:
     dance-single:
     JOE2:
     Hard:
     10:
     1.000,0.669,0.045,1.000,1.000: // measure 1
0000
0000
0000
0000
1001
0000
0001
1000
0010
0100
0001
0010
0000
0010
1000
0000
,  // measure 2
0000
0010
0001
0100
0000
0000
0010
0010
1000
0100
1000
0001
0000
0001
0100
0010
,  // measure 3
1000
0000
0001
1000
0100
0010
0001
0001
1000
0001
0100
0010
0000
0010
0001
0000
,  // measure 4
0000
0010
1000
0001
0000
0010
0100
1000
0010
0010
0100
0001
0000
0001
1000
0000
,  // measure 5
0100
0010
0100
0010
0001
1000
0001
1000
0200
0000
1300
0001
0010
0000
0002
0000
,  // measure 6
0203
0000
0310
1000
0001
0000
0020
0000
0230
0000
1300
0001
0100
0000
0020
0000
,  // measure 7
0230
0302
2003
3002
0023
0230
2300
3200
0320
0000
0031
1000
0010
0000
0200
0000
,  // measure 8
0302
0000
0013
0100
1000
0000
0200
0000
0320
0000
0031
1000
0010
0000
0200
0000
,  // measure 9
0302
0000
0203
0320
0230
0000
2300
0000
3100
0001
0100
0001
1000
0000
0200
0000
,  // measure 10
0320
0000
0130
1000
0001
0000
2000
0000
3002
0000
0103
0010
1000
0000
0200
0000
,  // measure 11
0320
0032
0023
0230
2300
3002
0203
0320
1030
0001
1000
0001
0000
0010
0002
0000
,  // measure 12
0203
0000
0310
0000
1000
0100
1000
0001
0200
0000
0300
0010
2000
0000
3000
0001
,  // measure 13
0020
0000
0030
0100
0020
0000
0031
0000
0200
0000
00M0
0000
M000
000M
0000
00M0
,  // measure 14
0000
M000
0000
000M
0000
0000
00M0
000M
00M0
0000
0300
0000
0000
0000
0000
0000
;

//---------------dance-single - JOE2----------------
#NOTES:
     dance-single:
     JOE2:
     Medium:
     8:
     0.893,0.517,0.536,1.000,0.402: // measure 1
0000
0000
0000
0000
1001
0000
1000
0000
0100
0000
0010
0001
0000
0001
0100
0000
,  // measure 2
0000
0010
1000
0001
0000
0000
0010
0000
0100
0000
1000
0001
0000
0001
1000
0000
,  // measure 3
0020
0000
0000
0230
0000
0000
0301
0000
1000
0000
0100
0010
0000
0010
0001
0000
,  // measure 4
0000
0100
0010
1000
0000
0000
0001
1000
0001
0000
0000
0000
0011
0000
0000
1100
,  // measure 5
0000
0000
0011
0000
0000
1100
0000
0000
2001
0000
3001
0000
0100
0000
0020
0000
,  // measure 6
2030
3100
0010
0002
0203
0310
0100
0002
,  // measure 7
2003
0000
3001
1000
0002
0000
1003
0100
2000
0000
3100
0000
0010
0000
0002
0000
,  // measure 8
0203
0310
0100
0002
2003
3100
0010
0002
,  // measure 9
0103
0100
0010
0010
2010
3100
0010
0002
,  // measure 10
0203
0310
1000
0200
0320
0130
1000
0002
,  // measure 11
0203
0000
0310
1000
0020
0000
1030
0001
2000
0000
3100
0000
0010
0000
0002
0000
,  // measure 12
2003
3010
0100
0001
1001
0000
1100
0000
,  // measure 13
0011
0101
2002
0000
,  // measure 14
0000
0000
0000
0000
0000
3003
0000
0000
;

//---------------dance-single - JOE2----------------
#NOTES:
     dance-single:
     JOE2:
     Easy:
     5:
     0.529,0.335,0.223,0.089,0.000: // measure 1
0000
0000
1001
0000
1000
0001
0010
0000
,  // measure 2
0100
0000
1000
0000
0001
1000
0001
0100
,  // measure 3
0010
0000
0100
0100
0001
1000
0100
0000
,  // measure 4
0010
0000
0001
0000
1000
0010
0100
0001
,  // measure 5
1000
1000
0001
0001
0010
0000
0100
1000
,  // measure 6
0001
0000
0100
0010
1000
0000
0100
0010
,  // measure 7
0001
1000
0001
0100
0010
0000
1000
0100
,  // measure 8
0010
0000
0100
1000
0001
0000
0100
0010
,  // measure 9
1000
1000
0100
0100
0010
0000
0001
0100
,  // measure 10
0010
0000
1000
0001
0010
0000
0001
0100
,  // measure 11
0010
1000
0010
1000
0001
0000
0010
0100
,  // measure 12
1000
0000
0001
0100
0010
0000
0110
0000
,  // measure 13
1001
0110
2002
0000
,  // measure 14
0000
0000
0000
0000
0000
3003
0000
0000
;

//---------------dance-double - JOE2----------------
#NOTES:
     dance-double:
     JOE2:
     Hard:
     10:
     1.000,0.669,0.089,1.000,1.000: // measure 1
00000000
00000000
00000000
00000000
00011000
00000000
00001000
00100000
00010000
10000000
01000000
00100000
00000000
00100000
00001000
00000000
,  // measure 2
00000000
00010000
00000010
00000100
00000000
00000000
00000010
00001000
00000100
00010000
00000100
00000010
00000000
00000100
00010000
00001000
,  // measure 3
00100000
00000000
00001000
00100000
00001000
01000000
00001000
01000000
00010000
00100000
01000000
10000000
00000000
00010000
01000000
00000000
,  // measure 4
00000000
00010000
00100000
00001000
00000000
00000000
00010000
00000100
00001000
00000001
00001000
00000010
00000000
00000100
00000010
00000000
,  // measure 5
00010000
00000010
00010000
00000010
00010000
00001000
00010000
00001000
02000000
00000000
03100000
10000000
01000000
00000000
00200000
00000000
,  // measure 6
00302000
00000000
00013000
00001000
00000100
00000000
00000020
00000000
00002030
00000000
00003100
00010000
00001000
00000000
00200000
00000000
,  // measure 7
02300000
03200000
00302000
00023000
00030020
00000230
00000302
00002003
00003020
00000000
00001030
00000100
00010000
00000000
00002000
00000000
,  // measure 8
02003000
00000000
03100000
10000000
01000000
00000000
00200000
00000000
00302000
00000000
00013000
00000100
00000010
00000000
00000200
00000000
,  // measure 9
00010300
00001000
00100000
00001000
00010000
00000000
00000020
00000000
00000130
00000001
00001000
00000100
00010000
00000000
00002000
00000000
,  // measure 10
00203000
00000000
01300000
00100000
00010000
00000000
02000000
00000000
03002000
00000000
00013000
00000100
00000010
00000000
00000100
00000000
,  // measure 11
00002000
00003002
00002003
00003200
00020300
00032000
02003000
03020000
01030000
00001000
01000000
00001000
00000000
00010000
00000200
00000000
,  // measure 12
00000320
00000000
00000130
00000000
00010000
00000100
00010000
00001000
00000200
00000000
00000300
00000010
00000002
00000000
00000003
00000010
,  // measure 13
00002000
00000000
00003000
00000100
00020000
00000000
00031000
00000000
00202000
0M000000
00000000
00000M00
00000000
000000M0
00000000
0000000M
,  // measure 14
00000000
000M0000
00000000
00000M00
00000000
00000000
M0000000
0M000000
M0000000
00000000
00303000
00000000
00000000
00000000
00000000
00000000
;

//---------------dance-double - JOE2----------------
#NOTES:
     dance-double:
     JOE2:
     Medium:
     8:
     0.899,0.578,0.491,1.000,0.447: // measure 1
00000000
00000000
00000000
00000000
00011000
00000000
00010000
00000000
00000100
00000000
00010000
00000010
00000000
00000010
00010000
00000000
,  // measure 2
00000000
00001000
00010000
00001000
00000000
00000000
00100000
00010000
10000000
00000000
00010000
00100000
00000000
00001000
01000000
00001000
,  // measure 3
00020000
00000000
00000000
00030020
00000000
00000000
00000130
00000000
00000001
00000000
00001000
00000100
00000000
00000100
00010000
00000000
,  // measure 4
00000000
00001000
01000000
00100000
00000000
00000000
10000000
00010000
00100000
00000000
00000000
00000000
00101000
00000000
00000000
00010100
,  // measure 5
00000000
00000000
00010010
00000000
00000000
00010010
00000000
00000000
00000210
00000000
00000301
00000000
00001000
00000000
00000200
00000000
,  // measure 6
00020300
00031000
01000000
20000000
32000000
03010000
00100000
00002000
,  // measure 7
00023000
00000000
00030100
00001000
00000200
00000000
00010300
00001000
00020000
00000000
00030100
00000000
00001000
00000000
00000002
00000000
,  // measure 8
00000023
00000130
00010000
00002000
02003000
03100000
10000000
02000000
,  // measure 9
03100000
00100000
10000000
10000000
00200000
00310000
00100000
00002000
,  // measure 10
00023000
00030010
00001000
00000002
00000203
00000310
00010000
00002000
,  // measure 11
00203000
00000000
01300000
00100000
02000000
00000000
13000000
00010000
20000000
00000000
30010000
00000000
00100000
00000000
00002000
00000000
,  // measure 12
00023000
00030100
00000010
00000100
00010100
00000000
00011000
00000000
,  // measure 13
01001000
01100000
20020000
00000000
,  // measure 14
00000000
00000000
00000000
00000000
00000000
30030000
00000000
00000000
;

//---------------dance-double - JOE2----------------
#NOTES:
     dance-double:
     JOE2:
     Easy:
     4:
     0.517,0.304,0.268,0.089,0.000: // measure 1
00000000
00000000
00011000
00000000
00001000
00100000
00010000
00000000
,  // measure 2
10000000
00000000
00010000
00000000
01000000
00001000
00010000
00000000
,  // measure 3
00000100
00000000
00000010
00000000
00000100
00010000
00000010
00000000
,  // measure 4
00000100
00000000
00000001
00000000
00001000
00000100
00010000
00000000
,  // measure 5
00001000
01000000
00001000
01000000
00100000
00000000
10000000
01000000
,  // measure 6
00100000
00000000
00001000
00010000
00000010
00000000
00000100
00000010
,  // measure 7
00010000
00001000
00100000
00001000
00010000
00000000
00001000
00100000
,  // measure 8
01000000
00000000
00100000
00001000
00010000
00000000
00000100
00001000
,  // measure 9
00000001
00000001
00000100
00000100
00000010
00000000
00001000
00000100
,  // measure 10
00010000
00000000
00001000
01000000
00100000
00000000
10000000
01000000
,  // measure 11
00100000
00001000
00100000
00001000
00010000
00000000
00000100
00001000
,  // measure 12
00000001
00000000
00000100
00000010
00001010
00000000
00001100
00000000
,  // measure 13
00010100
00011000
00022000
00000000
,  // measure 14
00000000
00000000
00000000
00000000
00000000
00033000
00000000
00000000
;
