#VERSION:0.81;
#TITLE:Track17;
#SUBTITLE:;
#ARTIST:Unknown artist;
#TITLETRANSLIT:;
#SUBTITLETRANSLIT:;
#ARTISTTRANSLIT:;
#GENRE:;
#ORIGIN:;
#CREDIT:;
#BANNER:banner_low.png;
#BACKGROUND:background_low.png;
#PREVIEWVID:;
#JACKET:jacket_low.png;
#CDIMAGE:;
#DISCIMAGE:background_sdlow.png;
#LYRICSPATH:;
#CDTITLE:;
#MUSIC:Track17.mp3;
#OFFSET:0.000;
#SAMPLESTART:0.000;
#SAMPLELENGTH:12.800;
#SELECTABLE:YES;
#BPMS:0.000=150.000,
16.000=75.000;
#STOPS:;
#DELAYS:;
#WARPS:;
#TIMESIGNATURES:0.000=4=4;
#TICKCOUNTS:0.000=4;
#COMBOS:0.000=1;
#SPEEDS:0.000=1.000=0.000=0;
#SCROLLS:0.000=1.000;
#FAKES:;
#LABELS:0.000=Song Start;
#BGCHANGES:;
#KEYSOUNDS:;
#ATTACKS:
;

//---------------dance-single - ----------------
#NOTEDATA:;
#CHARTNAME:;
#STEPSTYPE:dance-single;
#DESCRIPTION:;
#CHARTSTYLE:;
#DIFFICULTY:Beginner;
#METER:1;
#RADARVALUES:0.112,0.112,0.078,0.078,0.000,8.000,1.000,1.000,0.000,0.000,0.000,0.000,0.000,0.112,0.112,0.078,0.078,0.000,8.000,1.000,1.000,0.000,0.000,0.000,0.000,0.000;
#CREDIT:;
#NOTES:
1001
0000
0000
0000
,
1000
0000
0000
0000
,
0001
0000
0000
0000
,
0001
0000
0000
0000
,
0100
0000
0100
0000
,
0010
0000
0020
0030
;

//---------------dance-single - ----------------
#NOTEDATA:;
#CHARTNAME:;
#STEPSTYPE:dance-single;
#DESCRIPTION:;
#CHARTSTYLE:;
#DIFFICULTY:Easy;
#METER:4;
#RADARVALUES:0.313,0.225,0.156,0.000,0.000,26.000,2.000,0.000,0.000,0.000,0.000,0.000,0.000,0.313,0.225,0.156,0.000,0.000,26.000,2.000,0.000,0.000,0.000,0.000,0.000,0.000;
#CREDIT:;
#NOTES:
1001
0001
1000
1000
,
0010
0100
0001
0001
,
1100
1000
0100
0100
,
0010
0001
1000
0010
,
0100
0000
0001
0000
0010
1000
0001
0000
,
0100
0000
0010
0000
0100
0001
1000
0000
;

//---------------dance-single - ----------------
#NOTEDATA:;
#CHARTNAME:;
#STEPSTYPE:dance-single;
#DESCRIPTION:;
#CHARTSTYLE:;
#DIFFICULTY:Medium;
#METER:5;
#RADARVALUES:0.436,0.414,0.626,0.000,0.156,31.000,8.000,0.000,0.000,0.000,0.000,0.000,0.000,0.436,0.414,0.626,0.000,0.156,31.000,8.000,0.000,0.000,0.000,0.000,0.000,0.000;
#CREDIT:;
#NOTES:
1001
0000
0100
0000
0100
0010
0000
0010
,
1000
0000
1000
0001
0000
0001
0010
0000
,
0100
0000
0001
0000
1000
0010
0000
0010
,
0100
0000
0100
0001
0000
0001
0010
0000
,
1000
0000
0100
0000
0000
1100
0000
0000
1010
0000
0000
0110
0000
0000
0010
0000
,
0000
0000
0101
0000
0000
1001
0000
0000
0110
0000
0000
1100
0000
0000
0100
0000
;

//---------------dance-single - ----------------
#NOTEDATA:;
#CHARTNAME:;
#STEPSTYPE:dance-single;
#DESCRIPTION:;
#CHARTSTYLE:;
#DIFFICULTY:Hard;
#METER:8;
#RADARVALUES:0.604,0.483,0.235,0.000,0.352,51.000,3.000,0.000,0.000,0.000,0.000,0.000,0.000,0.604,0.483,0.235,0.000,0.352,51.000,3.000,0.000,0.000,0.000,0.000,0.000,0.000;
#CREDIT:;
#NOTES:
1001
0001
0010
0001
0010
0100
0010
0100
,
1000
0100
1000
0010
1000
0010
0110
0000
,
0001
1000
0001
1000
0010
0100
0010
0100
,
0001
0010
0100
1000
0100
0010
0011
0000
,
0001
1000
0010
0000
0010
0100
0000
0100
0001
0000
0001
0010
0000
0010
1000
0000
,
0100
0000
0010
0000
0010
1000
0000
1000
0001
0000
0001
0100
0000
0100
1000
0000
;

//---------------dance-single - ----------------
#NOTEDATA:;
#CHARTNAME:;
#STEPSTYPE:dance-single;
#DESCRIPTION:;
#CHARTSTYLE:;
#DIFFICULTY:Challenge;
#METER:9;
#RADARVALUES:0.816,0.836,0.391,0.626,0.548,60.000,5.000,8.000,0.000,0.000,0.000,0.000,0.000,0.816,0.836,0.391,0.626,0.548,60.000,5.000,8.000,0.000,0.000,0.000,0.000,0.000;
#CREDIT:;
#NOTES:
1001
0001
0100
1000
0100
0001
0010
1000
,
0010
0001
0100
1000
0100
0010
2020
0030
,
3001
0010
1000
0010
0001
0010
1000
0100
,
0001
1000
0001
0010
0001
0100
0220
0030
,
0301
0100
1000
0100
0001
0010
1000
0010
0001
0100
1000
0010
1000
0100
0202
0003
,
0310
1000
0010
1000
0001
0010
0100
1000
0001
0100
1000
0100
1000
0010
0022
0033
;

//---------------dance-double - ----------------
#NOTEDATA:;
#CHARTNAME:;
#STEPSTYPE:dance-double;
#DESCRIPTION:;
#CHARTSTYLE:;
#DIFFICULTY:Easy;
#METER:4;
#RADARVALUES:0.347,0.299,0.156,0.235,0.000,26.000,2.000,3.000,0.000,0.000,0.000,0.000,0.000,0.347,0.299,0.156,0.235,0.000,26.000,2.000,3.000,0.000,0.000,0.000,0.000,0.000;
#CREDIT:;
#NOTES:
00011000
00001000
00100000
00100000
,
00010000
00001000
00000200
00000300
,
00001001
00000001
00000010
00000100
,
00010000
00100000
00020000
00030000
,
01000000
00000000
00010000
00100000
00010000
00001000
00000010
00000000
,
00000100
00000000
00000001
00000010
00000100
00001000
00000020
00000030
;

//---------------dance-double - ----------------
#NOTEDATA:;
#CHARTNAME:;
#STEPSTYPE:dance-double;
#DESCRIPTION:;
#CHARTSTYLE:;
#DIFFICULTY:Medium;
#METER:6;
#RADARVALUES:0.492,0.483,0.078,0.000,0.352,43.000,1.000,0.000,0.000,0.000,0.000,0.000,0.000,0.492,0.483,0.078,0.000,0.352,43.000,1.000,0.000,0.000,0.000,0.000,0.000,0.000;
#CREDIT:;
#NOTES:
00011000
00001000
00000100
00000010
,
00000010
00001000
00000100
00001000
00000001
00000010
00000100
00000000
,
00001000
00010000
00100000
01000000
,
00010000
10000000
00100000
10000000
00100000
00010000
00100000
00000000
,
00001000
00100000
00001000
00000000
00001000
00010000
00000000
00010000
00001000
00000000
00001000
00000100
00000000
00000100
00000010
00000000
,
00000001
00000000
00001000
00000000
00000010
00000100
00000000
00000100
00001000
00000000
00001000
00000100
00000000
00000100
00001000
00000000
;

//---------------dance-double - ----------------
#NOTEDATA:;
#CHARTNAME:;
#STEPSTYPE:dance-double;
#DESCRIPTION:;
#CHARTSTYLE:;
#DIFFICULTY:Hard;
#METER:7;
#RADARVALUES:0.570,0.552,0.078,0.000,0.313,50.000,1.000,0.000,0.000,0.000,0.000,0.000,0.000,0.570,0.552,0.078,0.000,0.313,50.000,1.000,0.000,0.000,0.000,0.000,0.000,0.000;
#CREDIT:;
#NOTES:
00011000
00001000
00010000
00000000
00100000
00010000
01000000
00000000
,
00100000
10000000
01000000
10000000
00100000
01000000
00100000
00000000
,
00010000
00100000
00010000
00000000
00001000
00010000
00001000
00000000
,
00000100
00001000
00000010
00001000
00000001
00000010
00000001
00000000
,
00000100
00010000
00001000
00000000
00010000
00100000
01000000
00000000
00100000
10000000
00100000
00000000
10000000
01000000
10000000
00000000
,
00100000
00010000
01000000
00000000
00100000
00010000
00001000
00000000
00010000
00000100
00010000
00000000
00000100
00001000
00000100
00000000
;

//---------------dance-double - ----------------
#NOTEDATA:;
#CHARTNAME:;
#STEPSTYPE:dance-double;
#DESCRIPTION:;
#CHARTSTYLE:;
#DIFFICULTY:Challenge;
#METER:10;
#RADARVALUES:0.693,0.690,0.156,0.000,0.548,60.000,2.000,0.000,0.000,0.000,0.000,0.000,0.000,0.693,0.690,0.156,0.000,0.548,60.000,2.000,0.000,0.000,0.000,0.000,0.000,0.000;
#CREDIT:;
#NOTES:
00011000
00001000
00100000
00001000
00000010
00001000
00100000
00001000
,
00000100
00001000
01000000
00001000
00000100
00001000
01000000
00000000
,
00110000
00010000
01000000
00010000
00000100
00010000
01000000
00010000
,
00000010
00001000
00100000
00001000
00000010
00001000
00100000
00000000
,
00010000
00100000
10000000
00100000
00010000
00100000
10000000
00100000
00010000
00000100
00000010
00000100
00010000
00000100
00000010
00000000
,
00000001
00000100
00001000
00000100
00000001
00000100
00001000
00010000
00001000
00000100
00001000
00010000
01000000
00010000
00001000
00000000
;

//---------------dance-double - Nope----------------
#NOTEDATA:;
#CHARTNAME:;
#STEPSTYPE:dance-double;
#DESCRIPTION:Nope;
#CHARTSTYLE:;
#DIFFICULTY:Edit;
#METER:1818843322;
#RADARVALUES:0.660,0.690,0.078,0.000,0.548,58.000,1.000,0.000,0.000,0.000,0.000,0.000,0.000,0.660,0.690,0.078,0.000,0.548,58.000,1.000,0.000,0.000,0.000,0.000,0.000,0.000;
#CREDIT:;
#NOTES:
// measure 0
00011000
00001000
00100000
00010000
00000100
00000010
00000000
00000010
,  // measure 1
00010000
00000000
00001000
01000000
10000000
00010000
00100000
00100000
,  // measure 2
00010000
00000100
00000001
00000010
00000100
00001000
00000000
00000001
,  // measure 3
00000100
00001000
00000100
00000100
00000010
00001000
00010000
00000000
,  // measure 4
00010000
00100000
01000000
00100000
00010000
00100000
10000000
00100000
00010000
00100000
10000000
01000000
00100000
00010000
00100000
00000000
,  // measure 5
00001000
00010000
00001000
00000100
00001000
00010000
00001000
00000010
00000100
00000001
00000010
00000100
00001000
00000010
00000100
00000000
;
