#TITLE:Track15;
#SUBTITLE:;
#ARTIST:DJ MURASAME;
#TITLETRANSLIT:;
#SUBTITLETRANSLIT:;
#ARTISTTRANSLIT:;
#GENRE:;
#ORIGIN:;
#CREDIT:xXMokou98Xx;
#BANNER:Track_15.bn [xXMokou98Xx].png;
#BACKGROUND:Track_15.bg [xXMokou98Xx].png;
#PREVIEWVID:;
#JACKET:jacket [xXMokou98Xx].png;
#CDIMAGE:;
#DISCIMAGE:;
#LYRICSPATH:;
#CDTITLE:cdtitle.png;
#MUSIC:Track 15 [xXMokou98Xx].mp3;
#OFFSET:0.000;
#SAMPLESTART:0.000;
#SAMPLELENGTH:12.000;
#SELECTABLE:YES;
#BPMS:0.000=150.001;
#STOPS:;
#TIMESIGNATURES:0.000=4=4;
#BGCHANGES:;
#KEYSOUNDS:;
#ATTACKS:;

//---------------dance-single - Steps by xXMokou98Xx----------------
#NOTES:
     dance-single:
     Steps by xXMokou98Xx:
     Easy:
     5:
     0.225,0.405,0.094,0.453,0.000,66.000,6.000,29.000,0.000,0.000,0.000,-1.000,-1.000,0.225,0.405,0.094,0.453,0.000,66.000,6.000,29.000,0.000,0.000,0.000,-1.000,-1.000: // measure 1
2002
0000
0000
0000
0000
0000
0000
0003
,  // measure 2
0200
0000
0000
0000
0000
0000
0000
3000
,  // measure 3
0020
0000
0000
0000
0000
0000
0000
0300
,  // measure 4
0002
0000
0000
0000
0000
0000
0033
0100
,  // measure 5
0200
0000
0000
0000
,  // measure 6
0020
0000
0000
0000
0000
0000
0000
0300
,  // measure 7
2000
0000
0000
0000
0000
0000
0000
0030
,  // measure 8
0002
0000
0000
3003
1001
0000
0000
0000
,  // measure 9
1000
0100
0010
0002
0000
0000
0000
0003
,  // measure 10
1000
0100
0001
0010
,  // measure 11
0100
0001
0010
0200
0000
0000
0000
0300
,  // measure 12
1000
0010
0001
0100
,  // measure 13
1000
0010
0100
0002
0000
0000
0000
0003
,  // measure 14
0100
1000
0010
0001
,  // measure 15
0100
0010
1000
0200
0000
0000
0000
0300
,  // measure 16
2002
0000
0000
3003
0110
0000
1001
0000
,  // measure 17
0020
0000
0000
0000
,  // measure 18
0000
0000
0000
0000
0000
0000
0000
0030
,  // measure 19
0002
0000
0000
0000
,  // measure 20
0000
0000
0000
0000
0000
0000
0000
0003
,  // measure 21
0200
0000
0000
0000
,  // measure 22
0000
0000
0000
0000
0000
0000
0000
0300
,  // measure 23
2000
0000
0000
0000
,  // measure 24
0000
0000
0000
0000
0000
0000
0000
3000
,  // measure 25
0100
0010
0100
0020
0000
0000
0000
0000
,  // measure 26
0000
0000
0000
0000
0000
0000
0000
0030
,  // measure 27
0001
0100
0001
0200
0000
0000
0000
0000
,  // measure 28
0000
0000
0000
0000
0000
0000
0000
0300
,  // measure 29
0010
1000
0010
2000
0000
0000
0000
0000
,  // measure 30
0000
0000
0000
0000
0000
0000
0000
3000
,  // measure 31
1000
0001
1000
0002
0000
0000
0000
0000
,  // measure 32
0000
0000
0000
0000
0000
0000
0000
0003
,  // measure 33
0200
0000
0000
0000
,  // measure 34
0000
0000
0000
0000
0000
0000
0000
0300
,  // measure 35
0020
0000
0000
0000
,  // measure 36
0000
0000
0000
0000
0000
0000
0000
0030
,  // measure 37
2000
0000
0000
0000
,  // measure 38
0000
0000
0000
0000
0000
0000
0000
3000
,  // measure 39
0002
0000
0000
0000
0000
0000
0000
0003
,  // measure 40
0220
0000
0000
0000
0000
0000
0000
0330
;

//---------------dance-single - Steps by xXMokou98Xx----------------
#NOTES:
     dance-single:
     Steps by xXMokou98Xx:
     Medium:
     6:
     0.277,0.374,0.125,0.515,0.031,83.000,8.000,33.000,0.000,0.000,0.000,-1.000,-1.000,0.277,0.374,0.125,0.515,0.031,83.000,8.000,33.000,0.000,0.000,0.000,-1.000,-1.000:
2002
0000
0000
0000
0000
0000
0000
3000
,
0200
0000
0000
0000
0000
0000
0000
0003
,
0020
0000
0000
0000
0000
0000
0000
0300
,
2000
0000
0000
0000
0000
0000
3030
1000
,
0002
0000
0000
0000
,
0020
0000
0000
0000
0000
0000
0000
0003
,
0200
0000
0000
0000
0000
0000
0000
0030
,
2000
0000
0000
3300
1001
0000
0000
0000
,
0001
0000
0100
0000
0010
0000
1000
0200
0000
0000
0000
0000
0000
0000
0300
0000
,
0001
0101
1000
1100
,
0010
0000
0001
0000
0100
0000
0010
2000
0000
0000
0000
0000
0000
0000
3000
0000
,
0001
0110
1000
0110
,
0001
0000
1000
0000
0100
0000
0010
0200
0000
0000
0000
0000
0000
0000
0300
0000
,
0010
1010
0100
0101
,
0010
0000
1000
0000
0100
0000
0010
0002
0000
0000
0000
0000
0000
0000
0003
0000
,
2000
0000
0000
3000
0020
0030
0200
0300
,
0002
0000
0000
0000
0000
0000
0000
0003
,
0200
0000
0000
0000
0000
0000
0000
0300
,
2000
0000
0000
0000
0000
0000
0000
3000
,
0020
0000
0000
0000
0000
0000
0000
0030
,
0200
0000
0000
0000
0000
0000
0000
0300
,
2000
0000
0000
0000
0000
0000
0000
3000
,
0020
0000
0000
0000
0000
0000
0000
0030
,
0200
0000
0000
0000
0000
0000
0000
0300
,
0001
0100
0001
0200
0000
0000
0000
0000
,
0000
0000
0000
0000
0000
0000
0000
0300
,
0010
1000
0010
2000
0000
0000
0000
0000
,
0000
0000
0000
0000
0000
0000
0000
3000
,
0100
0010
0100
0020
0000
0000
0000
0000
,
0000
0000
0000
0000
0000
0000
0000
0030
,
0001
1000
0001
2000
0000
0000
0000
0000
,
0000
0000
0000
0000
0000
0000
0000
3000
,
0100
0001
0010
0002
0000
0000
0000
0000
,
0000
0000
0000
0000
0000
0000
0000
0003
,
0010
0100
1000
0020
0000
0000
0000
0000
,
0000
0000
0000
0000
0000
0000
0000
0030
,
0100
0001
0010
0200
0000
0000
0000
0000
,
0000
0000
0000
0000
0000
0000
0000
0300
,
0020
0000
0000
0000
,
0200
0000
0000
0000
0000
0000
0000
0330
;

//---------------dance-single - Steps by xXMokou98Xx----------------
#NOTES:
     dance-single:
     Steps by xXMokou98Xx:
     Hard:
     8:
     0.381,0.529,0.172,0.578,0.343,123.000,11.000,37.000,0.000,0.000,0.000,-1.000,-1.000,0.381,0.529,0.172,0.578,0.343,123.000,11.000,37.000,0.000,0.000,0.000,-1.000,-1.000:
2002
0000
0000
0000
0000
0000
0000
3000
,
0200
0000
0000
0000
0000
0000
0000
0003
,
0020
0000
0000
0000
0000
0000
0000
0300
,
2000
0000
0000
0000
0000
0000
3030
0110
,
0202
0000
0000
0000
0000
0000
0000
0003
,
0020
0000
0000
0000
0000
0000
0000
0300
,
0002
0000
0000
0000
0000
0000
0000
0030
,
2000
0000
0000
3003
0220
0000
0000
0330
,
1000
0001
0100
0001
0010
0100
1000
0020
0000
0000
0000
0000
0000
0000
0030
0000
,
1000
1100
0001
0101
,
0010
1000
0001
1000
0100
0010
0001
0200
0000
0000
0000
0000
0000
0000
0300
0000
,
0001
0110
1000
0110
,
0001
0100
0001
0100
0010
1000
0100
0020
0000
0000
0000
0000
0000
0000
0030
0000
,
1000
0011
0001
1100
,
1000
0100
0001
0100
0010
0001
0100
0020
0000
0000
0000
0000
0000
0000
0030
0000
,
2002
0000
0000
0003
0002
3003
0020
0030
,
2000
0000
0000
0000
0000
0000
0000
3000
,
0020
0000
0000
0000
0000
0000
0000
0030
,
0200
0000
0000
0000
0000
0000
0000
0300
,
2000
0000
0000
0000
0000
0000
0000
3000
,
0002
0000
0000
0000
0000
0000
0000
0003
,
0020
0000
0000
0000
0000
0000
0000
0030
,
2000
0000
0000
0000
0000
0000
0000
3000
,
0002
0000
0000
0000
0000
0000
0000
0003
,
0010
0100
0010
0100
0010
0100
0010
0200
0000
0000
0000
0000
0000
0000
0000
0000
,
0000
0000
0000
0000
0000
0000
0000
0300
,
0010
0001
0010
0001
0010
0001
0010
0002
0000
0000
0000
0000
0000
0000
0000
0000
,
0000
0000
0000
0000
0000
0000
0000
0003
,
1000
0010
1000
0010
1000
0010
1000
0020
0000
0000
0000
0000
0000
0000
0000
0000
,
0000
0000
0000
0000
0000
0000
0000
0030
,
1000
0100
1000
0100
1000
0100
1000
0200
0000
0000
0000
0000
0000
0000
0000
0000
,
0000
0000
0000
0000
0000
0000
0000
0300
,
1000
0010
1000
0010
0100
0001
0100
0002
0000
0000
0000
0000
0000
0000
0000
0000
,
0000
0000
0000
0000
0000
0000
0000
0003
,
0010
1000
0010
1000
0010
0100
0010
0200
0000
0000
0000
0000
0000
0000
0000
0000
,
0000
0000
0000
0000
0000
0000
0000
0300
,
0001
1000
0001
1000
0100
1000
0100
2000
0000
0000
0000
0000
0000
0000
0000
0000
,
0000
0000
0000
0000
0000
0000
0000
3000
,
0200
0000
0000
0000
,
0020
0000
0000
0000
0000
0000
0000
0330
;
