#TITLE:Track14;
#SUBTITLE:;
#ARTIST:DJ MURASAME;
#TITLETRANSLIT:;
#SUBTITLETRANSLIT:;
#ARTISTTRANSLIT:;
#GENRE:;
#CREDIT:TaroNuke;
#BANNER:banner.png;
#BACKGROUND:bg.png;
#LYRICSPATH:;
#CDTITLE:;
#MUSIC:Track14.mp3;
#OFFSET:-0.020;
#SAMPLESTART:0.000;
#SAMPLELENGTH:12.000;
#SELECTABLE:YES;
#BPMS:0.000=150.000;
#STOPS:;
#BGCHANGES:;
#KEYSOUNDS:;

//---------------dance-single - TaroNuke----------------
#NOTES:
     dance-single:
     TaroNuke:
     Hard:
     9:
     0.819,0.656,0.340,0.654,0.654:
2001
0000
0000
3002
0000
0000
0203
0000
0310
0000
0000
0000
0000
0000
0101
0000
,
0000
1010
0000
1000
0001
0010
0100
0010
,
0002
0000
0000
2003
0000
0000
3200
0000
0000
0000
0000
0000
1300
0000
0001
0000
,
1000
0000
0010
0100
0000
0100
0010
0000
1000
0000
0001
0000
0010
0000
0100
0000
,
1002
0000
0000
0023
0000
0000
0230
0000
1300
0000
0000
0000
0000
0000
1100
0000
,
0000
0011
0000
0001
0100
1000
0100
0010
,
0200
0000
0000
0302
0000
0000
0203
0000
0000
0000
0000
0000
0301
0000
1000
0000
,
0001
0000
0000
1000
0000
0000
0100
0010
0100
0000
1000
0000
0001
0000
0100
0000
,
2001
0000
0000
3020
0000
0000
0230
0000
0301
0000
0000
0000
0000
0000
0101
0000
,
0000
1010
0000
1000
0001
0010
1000
0010
,
0002
0000
0000
2003
0000
0000
3020
0000
0000
0000
0000
0000
1030
0000
0001
0000
,
1000
0000
0010
0100
0000
0010
0000
1000
0001
0000
0100
0000
0010
1000
0010
0000
,
1002
0000
0000
0023
0000
0000
0230
0000
1300
0000
0000
0000
0000
0000
1100
0000
,
0000
0011
0000
0001
0010
1000
0010
0100
,
0020
0000
0000
0032
0000
0000
0203
0000
2300
0000
0000
0000
3100
0000
0001
0100
,
0001
0000
1000
0100
0000
0010
0001
0010
0100
0000
1000
0000
0010
0000
0100
0000
,
0001
0000
0001
1000
0000
1000
0010
0000
0010
0100
0000
0100
0001
0000
1000
0000
,
0001
0000
0001
0010
0000
0010
0100
0000
0100
1000
0000
1000
0010
0000
0100
0000
,
0001
0000
0001
0100
0000
0100
0010
0000
0010
1000
0000
1000
0100
0000
0010
0000
,
0001
0000
0001
1000
0000
1000
0100
0000
0100
0010
0000
0010
0001
0000
1000
0000
,
0001
0000
0001
0100
0000
0100
1000
0000
1000
0100
0000
0100
0010
0000
1000
0000
,
0001
0000
0001
0010
0000
0010
1000
0000
1000
0010
0000
0010
0100
0000
1000
0000
,
0001
0000
0100
0010
0000
1000
0100
0000
0010
0001
0000
0100
0010
0000
1000
0100
,
1000
0000
0000
1100
0000
0000
1000
0000
0010
0000
0100
0000
0001
0000
0010
0000
;

//---------------dance-single - TaroNuke----------------
#NOTES:
     dance-single:
     TaroNuke:
     Medium:
     7:
     0.512,0.406,0.026,0.366,0.183:
1001
0000
1000
0000
0010
0100
0001
0000
,
0001
0010
0200
2300
,
3001
0000
0100
0000
0010
1000
0001
0000
,
0001
0010
0200
0320
,
0031
0000
1000
0000
0100
0010
0001
0000
,
0001
0100
0020
2030
,
3001
0000
0100
0000
0010
0100
0001
0000
,
0001
0000
1000
0000
0100
0010
0100
0010
,
0001
0001
1000
1000
,
0010
0100
0010
0000
2000
0000
3002
0000
,
0013
0000
0010
0000
0100
0010
0100
0000
,
1000
0100
1000
0000
0002
0000
0023
0000
,
0031
0000
0001
0000
1000
0010
1000
0000
,
0100
0010
0100
0000
2000
0000
3020
0000
,
0130
0000
0100
0000
0001
0100
0001
0000
,
0010
0100
1000
0100
0020
0000
0032
0000
,
1003
0000
0000
0100
0000
0000
1000
0000
0000
0100
0000
0000
1000
0000
0000
0000
,
0001
0000
0000
0100
0000
0000
0001
0000
0000
0100
0000
0000
0001
0000
0000
0000
,
0010
0000
0000
0100
0000
0000
0010
0000
0000
0100
0000
0000
0010
0000
0000
0000
,
0001
0000
0000
1000
0000
0000
0001
0000
1000
0000
0001
0000
0100
0000
0010
0000
,
1000
0000
0000
0010
0000
0000
1000
0000
0000
0010
0000
0000
1000
0000
0000
0000
,
0001
0000
0000
0010
0000
0000
0001
0000
0000
0010
0000
0000
0001
0000
0000
0000
,
0100
0000
0000
0010
0000
0000
0100
0000
0000
0010
0000
0000
0100
0000
0000
0000
,
0001
0000
0000
0010
0000
0000
0100
0000
1000
0000
0001
0000
0100
0000
0010
0000
;

//---------------dance-single - TaroNuke----------------
#NOTES:
     dance-single:
     TaroNuke:
     Easy:
     3:
     0.243,0.217,0.235,0.000,0.000:
1001
0000
1000
0000
,
0100
0000
0010
0001
,
1001
0000
1000
0000
,
0010
0000
0100
0001
,
1001
0000
0001
0000
,
0010
0000
0100
1000
,
1001
0000
0001
0000
,
0100
0000
0010
1000
,
1001
0000
1000
0010
,
1000
0000
0001
0010
,
0001
0000
0100
0000
,
0010
0000
1000
0001
,
1001
0000
0001
0100
,
0001
0000
1000
0100
,
1000
0000
0010
0100
,
0110
0000
1001
0000
,
0110
0000
0000
0000
,
1000
0000
0000
0000
,
0001
0000
0000
0000
,
0100
0000
0000
0000
,
0010
0000
1000
0000
,
0001
0000
0100
0000
,
0010
0000
1000
0000
,
0001
1000
0001
1000
;
