#TITLE:Track 13;
#SUBTITLE:;
#ARTIST:DJ MURASAME;
#TITLETRANSLIT:;
#SUBTITLETRANSLIT:;
#ARTISTTRANSLIT:;
#GENRE:;
#CREDIT:Sudzi781;
#BANNER:track 13-BN.png;
#BACKGROUND:track 13-BG.png;
#LYRICSPATH:;
#CDTITLE:SudziCD.png;
#MUSIC:Track13.mp3;
#OFFSET:-0.017;
#SAMPLESTART:0.012;
#SAMPLELENGTH:12.000;
#SELECTABLE:YES;
#BPMS:0.000=150.000;
#STOPS:;
#BGCHANGES:;
#KEYSOUNDS:;

//---------------dance-single - Sudzi781----------------
#NOTES:
     dance-single:
     Sudzi781:
     Hard:
     10:
     0.872,0.749,0.078,0.104,0.965:
1001
0000
0000
1000
0010
0000
0100
0000
0001
0000
0000
1000
0001
0000
1000
0000
,
0010
0000
0000
1000
0100
0000
0010
0000
0001
0001
0100
0000
1000
0000
0100
0000
,
0010
0000
0000
1000
0001
0000
0010
0000
0100
0000
0000
0010
0001
0000
1000
0000
,
0001
0000
0000
0100
0001
0000
0100
0000
0010
1000
0100
0000
0010
0100
0000
0100
,
1000
0000
0000
0001
0100
0000
0001
0000
1000
0000
0000
0001
0010
0000
0001
0000
,
0100
0000
0000
0010
0100
0000
0001
0000
1000
1000
0010
0000
0001
0000
0010
0000
,
0100
0000
0000
0010
1000
0000
0001
0000
0010
0000
0000
0100
0010
0000
0001
0000
,
0200
0000
0000
0310
1000
0000
1000
0001
0000
0001
0010
0000
0100
0000
0010
0000
,
0011
0000
0000
0001
1000
0000
0100
0010
0100
1000
0100
1000
0001
0000
1000
0000
,
0010
0000
0000
1000
0010
0000
0100
0001
0100
0001
1000
0000
0100
0010
0100
1000
,
0001
0000
0000
1000
0100
0000
0010
0001
1000
0001
0100
0010
1000
0000
0001
0000
,
0010
0000
0000
0100
0001
0100
0000
1000
0000
0010
1000
0000
0001
0000
0010
0000
,
0100
0000
0000
1000
0001
0000
1000
0100
0010
0001
0010
0001
1000
0000
0010
0000
,
0100
0000
0000
0010
1000
0000
0001
0100
0001
1000
0100
0000
0010
0100
1000
0001
,
0100
0000
0000
0010
0100
0000
0010
1000
0010
0100
0001
1000
0100
0000
0010
0000
,
0002
0000
0000
0103
0010
0000
0010
1000
0000
1000
0100
0000
0010
0000
0100
0000
,
1100
0000
0000
1000
0001
0000
0010
0000
0100
0000
0000
0010
0001
0000
0100
0000
,
0010
0000
0000
1000
0001
0000
0010
0000
0100
0100
0010
0000
1000
0000
0010
0000
,
0001
0000
0000
0100
0010
0000
1000
0000
0100
0000
0000
0010
0001
0000
0100
0000
,
0010
0000
0000
0100
0001
0000
1000
0000
0100
0010
0100
0000
1000
0001
0000
0001
,
0100
0000
0000
0010
1000
0000
0001
0000
0010
0000
0000
0100
0010
0000
0001
0000
,
1000
0000
0000
0010
1000
0000
0001
0000
1000
1000
0100
0000
0001
0000
0100
0000
,
0010
0000
0000
0001
0100
0000
0010
0000
0100
0000
0000
0001
1000
0000
0010
0000
,
0200
0000
0000
0310
1000
0000
1000
0002
0000
0013
0100
1000
0001
0100
0010
1000
;

//---------------dance-single - Sudzi781----------------
#NOTES:
     dance-single:
     Sudzi781:
     Medium:
     8:
     0.626,0.467,0.026,0.078,0.169:
1001
0000
0001
0010
0100
0000
1000
0100
,
0010
0000
0000
0000
0001
0000
0100
0000
0010
1000
0010
0000
0100
0000
0001
0000
,
0010
0000
0100
0010
0001
0000
1000
0010
,
0100
0000
0000
0000
0001
0000
0010
0000
0100
1000
0100
0000
0010
0200
0000
0000
,
1300
0000
0001
1000
0010
0000
1000
0001
,
0010
0000
0000
0000
0001
0000
1000
0000
0010
1000
0010
0000
0100
0000
0001
0000
,
1000
0000
0010
1000
0001
0000
0100
0001
,
1000
0000
0000
0000
0100
0000
1000
0100
0000
0100
0010
0000
0001
0000
1000
0000
,
0010
0000
0100
0010
0001
0000
0010
1000
,
0001
0000
0010
0100
0001
0100
1000
0100
,
0010
0000
0001
0100
1000
0100
0010
0100
,
0001
0000
1000
0100
0010
0000
1000
0010
,
0001
0000
0010
0001
1000
0000
0001
0100
,
0010
0000
0100
0001
1000
0100
0010
0100
,
1000
0000
0001
1000
0010
0000
0100
0010
,
1000
0000
0000
0000
0100
0000
1000
0001
0000
0001
0100
0000
0010
0000
0100
0000
,
0001
0000
1000
0010
1000
0000
0001
0010
,
0001
0000
0000
0000
1000
0000
0100
0000
0010
0001
0010
0000
0100
0000
1000
0000
,
0010
0000
1000
0010
0100
0000
0010
1000
,
0100
0000
0000
0000
0010
0000
0001
0000
1000
0001
1000
0000
0010
0200
0000
0000
,
0301
0000
1000
0001
0010
0000
0100
0010
,
0001
0000
0000
0000
1000
0000
0001
0000
0100
0001
0100
0000
0010
0000
1000
0000
,
0001
0000
0010
0100
1000
0000
0100
0010
,
0001
0000
0000
0000
1000
0000
0001
0200
0000
0000
0310
0000
0010
0000
1000
0000
;

//---------------dance-single - Sudzi781----------------
#NOTES:
     dance-single:
     Sudzi781:
     Easy:
     5:
     0.425,0.311,0.026,0.000,0.039:
1001
0001
0100
0010
,
1000
0000
0100
0000
0010
0100
1000
0000
,
0001
1000
0010
0100
,
0001
0000
0010
0000
0100
0010
0001
0000
,
1000
0010
0100
0010
,
1000
0000
0001
0000
1000
0100
1000
0000
,
0001
0010
0100
0010
,
0001
0000
0000
0000
1000
0000
0000
0010
0000
0000
1000
0000
0001
0000
0000
0000
,
1000
0000
0100
0010
0100
0000
1000
0000
,
0001
0000
1000
0010
1000
0000
0001
0000
,
0100
0000
0001
1000
0001
0000
0010
0000
,
0100
0000
1000
0100
1000
0000
0001
0000
,
1000
0000
0010
0100
0010
0000
1000
0000
,
0001
0000
0010
0100
0010
0000
0100
0000
,
1000
0000
0001
1000
0001
0000
0100
0000
,
0010
0000
0000
0000
0100
0000
0000
0001
0000
0000
1000
0000
0001
0000
0000
0000
,
0010
0001
1000
0001
,
0100
0000
0010
0000
0100
0010
1000
0000
,
0100
0010
0001
1000
,
0010
0000
1000
0000
0001
1000
0001
0000
,
0010
0100
1000
0010
,
0100
0000
0001
0000
0100
0010
0100
0000
,
0001
1000
0100
0010
,
0001
0000
0000
0000
1000
0000
0000
0010
0000
0000
1000
0000
0001
0000
1000
0000
;
