#TITLE:Track10;
#SUBTITLE:;
#ARTIST:DJ MURASAME;
#TITLETRANSLIT:;
#SUBTITLETRANSLIT:;
#ARTISTTRANSLIT:;
#GENRE:;
#CREDIT:xXMokou98Xx;
#BANNER:Track10 [xXMokou98Xx].bn.png;
#BACKGROUND:Track10 [xXMokou98Xx].bg.png;
#LYRICSPATH:;
#CDTITLE:cdtitle.png;
#MUSIC:Track10 [xXMokou98Xx].mp3;
#OFFSET:-0.020;
#SAMPLESTART:0.020;
#SAMPLELENGTH:12.000;
#SELECTABLE:YES;
#BPMS:0.000=150.000
,128.000=75.000
,160.000=300.000
;
#STOPS:
;
#BGCHANGES:;
#KEYSOUNDS:;
#ATTACKS:;

//---------------dance-single - Blank----------------
#NOTES:
     dance-single:
     :
     Hard:
     10:
     0.669,0.690,0.120,1.000,0.168,296.000,10.000,84.000,4.000,0.000,0.000,0.669,0.690,0.120,1.000,0.168,296.000,10.000,84.000,4.000,0.000,0.000:
1001
0100
0010
0100
0010
0001
0100
1000
,
0100
0010
1000
0100
0010
0001
0010
0001
,
1000
0010
0001
1000
0100
0001
1000
0010
,
0001
1000
0100
0001
0100
1000
0010
0100
,
0120
1030
0001
0100
0010
0100
0001
0010
,
0100
0010
0001
1000
0010
0100
0001
1000
,
0001
0010
1000
0001
0100
1000
0001
0010
,
1000
0001
0100
1000
0100
0010
1000
0100
,
0021
0031
0100
0010
1000
0100
1000
0001
,
0100
0001
0010
0100
1000
0010
0100
0001
,
1000
0100
0001
0010
0001
0100
1000
0100
,
0001
0010
0001
0100
1000
0010
0100
0001
,
0201
0301
1000
0100
1000
0001
0100
0001
,
0010
0100
1000
0010
0100
0001
1000
0010
,
0100
0001
0010
0100
1000
0010
1000
0100
,
0010
0001
0100
0010
1000
0001
1000
0100
,
0020
0000
0031
0200
0000
0310
2000
0000
,
3100
0010
0001
1000
0100
0010
0001
0010
,
0200
0000
2300
3020
0000
2030
3002
0000
,
0103
0010
1000
0001
0100
0010
1000
0001
,
0200
0000
0320
2030
0000
3002
0023
0000
,
0130
1000
0010
0100
0001
0010
0100
1000
,
0020
0000
0000
0000
0000
0030
0200
0000
,
0302
0000
0000
0003
0010
0100
1000
0000
,
0020
0000
0030
0200
0000
0000
0000
0300
,
0022
0033
2200
3300
0010
0100
0001
0000
,
2000
0000
3000
0020
0000
0000
0000
0030
,
0202
0303
0220
0330
1000
0100
0001
0000
,
0020
0000
0030
2000
0000
0000
0000
3000
,
0220
0330
0020
0032
0003
2000
3020
0030
,
0200
0000
0000
0000
0020
0030
0002
0000
0303
0000
0020
0000
2000
0000
0030
0000
,
0002
0000
0000
3000
0200
0000
0000
0303
,
MMMM
0000
0000
0000
0000
0000
0000
0000
0000
0000
0000
0000
0000
0000
0000
0000
0000
0000
0000
0000
0000
0000
0000
0000
2000
0000
0000
0000
0000
0000
0000
0000
0000
0000
0000
0000
0000
0000
0000
0000
0000
0000
0000
0000
0000
0000
0000
0000
3020
0000
0000
0000
0000
0000
0000
0000
0000
0000
0000
0000
0000
0000
0000
0000
0000
0000
0000
0000
0000
0000
0000
0000
0000
0000
0000
0000
0000
0000
0230
0000
0000
0000
0000
0000
0000
0000
0000
0000
0002
0000
0000
0000
0000
0000
0000
0000
0000
0000
0000
0000
0000
0000
0000
0000
0000
0000
0000
0000
0000
0000
0000
0000
0000
0000
0000
0000
0000
0000
0000
0000
0303
0000
0000
0000
0000
0000
0000
0000
0000
0000
0000
0000
0000
0000
0000
0000
0000
0000
0000
0000
0000
0000
0000
0000
0000
0000
0000
0000
0000
0000
0000
0000
0000
0000
0000
0000
0000
0000
0000
0000
0000
0000
2000
0000
0000
0000
0000
0000
0000
0000
0000
0000
0000
0000
0200
0000
0000
0000
0000
0000
3000
0000
0000
0000
0000
0000
0020
0000
0000
0000
0000
0000
,
0300
0002
0030
0000
0000
0000
0000
0003
0000
0000
0000
0000
0000
2000
0000
0000
0000
0020
3000
0000
0000
0000
0000
0002
0000
0000
0000
0000
0033
0000
0000
0000
,
0000
0000
0000
0000
0000
0000
0000
0000
0000
0000
0000
0000
0000
0000
0000
0000
0000
0000
0000
0000
0000
0000
0000
0000
0020
0000
0000
0000
0000
0000
0000
0000
0000
0000
0000
0000
0000
0000
0000
0000
0000
0000
0000
0000
0000
0000
0000
0000
0230
0000
0000
0000
0000
0000
0000
0000
0000
0000
0000
0000
0000
0000
0000
0000
0000
0000
0000
0000
0000
0000
0000
0000
0000
0000
0000
0000
0000
0000
0320
0000
0000
0000
0000
0000
0000
0000
0000
0000
2000
0000
0000
0000
0000
0000
0000
0000
0000
0000
0000
0000
0000
0000
0000
0000
0000
0000
0000
0000
0000
0000
0000
0000
0000
0000
0000
0000
0000
0000
0000
0000
3030
0000
0000
0000
0000
0000
0000
0000
0000
0000
0000
0000
0000
0000
0000
0000
0000
0000
0000
0000
0000
0000
0000
0000
0000
0000
0000
0000
0000
0000
0000
0000
0000
0000
0000
0000
0000
0000
0000
0000
0000
0000
2000
0000
0000
0000
0000
0000
0000
0000
0000
0000
0000
0000
3002
0000
0000
0000
0000
0000
0000
0000
0000
0000
0000
0000
0203
0000
0000
0000
0000
0000
,
0000
0320
0000
0000
0000
0030
0000
0000
0000
0000
0000
2000
0000
0000
0000
0002
0000
0000
0000
0000
3003
0000
0000
0000
0000
0000
0000
0200
0000
0000
0000
0020
,
0000
0000
0000
0330
0000
0000
0000
2000
0000
0000
0000
0000
0000
0200
0000
0000
0000
0000
0000
0000
0000
0000
0000
0000
3300
0000
0000
0000
0000
0020
0000
0000
,
0000
0200
0000
0000
0330
0000
0000
0002
0000
0000
0000
0000
0000
2000
0000
0000
0000
0000
0000
0000
0000
0000
0000
0000
0000
0000
0000
0000
3003
0000
0000
0000
,
0000
0020
0000
0000
0000
0000
0000
0230
0000
0000
0000
0000
0000
0302
0000
0000
0000
0000
0000
0000
0000
0000
0000
0000
0000
0000
0000
0000
0003
0000
0000
0000
,
2200
0000
3300
0020
0002
0000
0000
0033
,
1000
0100
1000
0010
1000
0100
1000
0010
,
0100
0001
0100
0010
0100
0001
0100
0010
,
1000
0100
0010
0001
0100
0010
1000
0001
,
0010
0100
1000
0010
0100
0001
0010
0100
,
1000
0100
1000
0100
0001
0100
0001
0100
,
1000
0010
1000
0010
0001
0010
0001
0010
,
1000
0100
0010
0001
0100
0010
1000
0001
,
0010
0100
2000
0200
0000
0000
0000
3300
;

//---------------dance-single - Blank----------------
#NOTES:
     dance-single:
     :
     Medium:
     7:
     0.621,0.719,0.240,0.985,0.168,260.000,20.000,82.000,4.000,0.000,0.000,0.621,0.719,0.240,0.985,0.168,260.000,20.000,82.000,4.000,0.000,0.000:
1001
0100
0120
0030
1000
0020
0030
0001
,
2000
3001
0010
0100
1000
0001
0010
0100
,
1000
0010
0110
0000
0001
0200
0300
0010
,
0200
0300
0001
0100
0010
1000
0010
0100
,
0001
0010
0011
0000
0010
2000
3000
0100
,
0020
0130
0001
0100
1000
0100
0010
0001
,
1000
0001
1001
0000
0100
0020
0030
0010
,
0200
0300
0001
1000
0100
0010
0001
0010
,
0100
1000
1010
0000
0100
0002
0003
0010
,
0200
0310
1000
0100
0001
0010
1000
0001
,
0100
0010
1010
0000
0100
0002
0003
0100
,
0020
0030
0100
0001
0010
0100
1000
0010
,
1000
0001
0101
0000
0010
2000
3000
0001
,
0020
1030
0001
0100
1000
0100
0001
0010
,
0100
0010
1010
0000
0001
0020
0030
1000
,
0200
0300
0010
0100
0010
1000
0001
0100
,
1020
0000
0000
0230
0000
0000
0302
0003
,
1000
0100
0010
0001
0100
0010
1000
0001
,
0120
0000
0000
0230
0000
0000
2300
3000
,
0010
0100
0001
0010
0100
1000
0010
0100
,
0012
0000
0000
0203
0000
0000
2300
3000
,
0010
0001
0100
1000
0100
0001
0010
0100
,
2200
0000
0300
3020
,
0230
0300
0101
0000
0010
1000
0100
0000
,
0012
0000
0000
0203
0000
0000
0320
0030
,
0100
0001
0010
0100
1000
0010
0100
0001
,
0210
0000
0000
0320
0000
0000
0032
0003
,
1000
0001
0100
0001
0010
0001
0100
0001
,
1020
0000
0000
0230
0000
0000
0302
0003
,
2000
0000
0000
3200
0000
0000
0000
0300
,
0020
0000
0000
0032
0000
0003
0200
0000
,
0000
0000
0000
0000
0020
0000
0000
0330
,
MMMM
0000
0000
0000
0000
0000
0000
0000
0000
0000
0000
0000
0000
0000
0000
0000
0000
0000
0000
0000
0000
0000
0000
0000
2000
0000
0000
0000
0000
0000
0000
0000
0000
0000
0000
0000
0000
0000
0000
0000
0000
0000
0000
0000
0000
0000
0000
0000
3020
0000
0000
0000
0000
0000
0000
0000
0000
0000
0000
0000
0000
0000
0000
0000
0000
0000
0000
0000
0000
0000
0000
0000
0030
0000
0000
0000
0000
0000
0200
0000
0000
0000
0000
0000
0000
0000
0000
0000
0020
0000
0000
0000
0000
0000
0000
0000
0000
0000
0000
0000
0000
0000
0000
0000
0000
0000
0000
0000
0000
0000
0000
0000
0000
0000
0000
0000
0000
0000
0000
0000
0330
0000
0000
0000
0000
0000
0000
0000
0000
0000
0000
0000
0000
0000
0000
0000
0000
0000
0000
0000
0000
0000
0000
0000
0000
0000
0000
0000
0000
0000
0000
0000
0000
0000
0000
0000
0000
0000
0000
0000
0000
0000
2000
0000
0000
0000
0000
0000
0000
0000
0000
0000
0000
0000
3020
0000
0000
0000
0000
0000
0000
0000
0000
0000
0000
0000
0230
0000
0000
0000
0000
0000
,
0000
0320
0000
0000
0000
0000
0000
0000
0030
0000
0000
0000
0000
2000
0000
0000
0000
3020
0000
0000
0000
0000
0000
0230
0000
0000
0000
0000
0300
0000
0000
0000
,
0000
0000
0000
0000
0000
0000
0000
0000
0000
0000
0000
0000
0000
0000
0000
0000
0000
0000
0000
0000
0000
0000
0000
0000
2000
0000
0000
0000
0000
0000
0000
0000
0000
0000
0000
0000
0000
0000
0000
0000
3000
0000
0000
0000
0000
0000
0000
0000
0200
0000
0000
0000
0000
0000
0000
0000
0000
0000
0000
0000
0000
0000
0000
0000
0300
0000
0000
0000
0000
0000
0000
0000
0000
0000
0000
0000
0000
0000
0002
0000
0000
0000
0000
0000
0000
0000
0000
0000
0023
0000
0000
0000
0000
0000
0000
0000
0000
0000
0000
0000
0000
0000
0000
0000
0000
0000
0000
0000
0000
0000
0000
0000
0000
0000
0000
0000
0000
0000
0000
0000
0030
0000
0000
0000
0000
0000
0000
0000
0000
0000
0000
0000
0000
0000
0000
0000
0000
0000
0000
0000
0000
0000
0000
0000
0000
0000
0000
0000
0000
0000
0000
0000
0000
0000
0000
0000
0000
0000
0000
0000
0000
0000
0200
0000
0000
0000
0000
0000
0000
0000
0000
0000
0000
0000
0302
0000
0000
0000
0000
0000
0000
0000
0000
0000
0000
0000
0023
0000
0000
0000
0000
0000
,
0000
0230
0000
0000
0000
0000
0000
0000
0300
0000
0000
1000
0000
0000
0000
2002
0000
0000
0000
0000
3003
0000
0000
0000
0000
0000
0000
0100
0000
0000
0000
0102
,
0000
0000
0000
0000
0000
0000
0000
0020
0000
0000
0030
0000
0003
0200
0000
0000
0000
0000
0000
0000
0000
0000
0000
0000
0300
0000
0000
0000
0000
0020
0000
0000
,
0000
2030
0000
0000
0000
0000
0000
3020
0000
0000
0000
0000
0000
0230
0000
0000
0000
0000
0000
0000
0000
0000
0000
0000
0000
0000
0000
0000
0300
0000
0000
0000
,
0000
0002
0000
0000
0000
0003
0000
2000
0000
0000
0000
3000
0000
0200
0000
0000
0000
0000
0000
0000
0000
0000
0000
0000
0300
0000
0000
0000
0000
0000
0000
0000
,
0202
0000
0300
0023
0230
0000
0000
0300
,
1000
0100
1000
0000
0100
0010
0100
0000
,
0010
0001
0010
0000
0001
0100
0001
0000
,
1000
0010
1000
0000
0001
1000
0001
0000
,
0100
0001
0100
0000
0001
0100
0001
0000
,
0100
0010
0100
0000
1000
0100
1000
0000
,
0010
0001
0100
0000
0010
1000
0100
0000
,
0010
0100
1000
0000
0001
0010
0100
0000
,
1000
0001
0200
0002
0000
0000
0000
0303
;

//---------------dance-single - Blank----------------
#NOTES:
     dance-single:
     :
     Easy:
     6:
     0.534,0.805,0.348,0.817,0.150,214.000,29.000,68.000,4.000,0.000,0.000,0.534,0.805,0.348,0.817,0.150,214.000,29.000,68.000,4.000,0.000,0.000: // measure 0
1001
0100
0010
0000
0001
0100
0000
1000
,  // measure 1
0100
1000
0100
0010
1000
0100
0010
0001
,  // measure 2
1000
0001
0100
0000
0010
0100
0000
0001
,  // measure 3
0100
0000
0001
1000
0010
1000
0100
1000
,  // measure 4
0010
0100
0001
0000
1000
0010
0000
0100
,  // measure 5
0001
0100
0010
1000
0001
0010
0100
1000
,  // measure 6
0010
1000
0001
0000
0010
0100
0000
1000
,  // measure 7
0100
0000
1000
0001
0100
0001
0010
0001
,  // measure 8
0100
0010
1000
0000
0001
0010
0000
0100
,  // measure 9
0010
0001
1000
0001
0100
0010
1000
0100
,  // measure 10
0010
0001
1000
0000
0010
1000
0000
0010
,  // measure 11
0100
0000
0001
0010
0001
1000
0001
0100
,  // measure 12
0010
1000
0100
0000
0001
0100
0000
1000
,  // measure 13
0001
0100
0001
0010
0100
0010
0001
1000
,  // measure 14
0010
0001
0010
0000
0100
1000
0000
0001
,  // measure 15
1000
0000
0001
0010
1000
0010
0100
0010
,  // measure 16
0002
0000
0003
0200
0000
0300
0020
0030
,  // measure 17
1000
1100
0001
0101
,  // measure 18
0120
0000
0030
2000
0000
3000
0200
0300
,  // measure 19
0010
0011
0001
0101
,  // measure 20
0210
0000
0300
0002
0000
0003
2000
3000
,  // measure 21
0100
0110
0010
1010
,  // measure 22
2100
0000
0000
0000
0000
3000
0002
0003
,  // measure 23
0010
1010
1000
1001
,  // measure 24
0102
0000
0003
0020
0000
0000
0000
0030
,  // measure 25
0100
1100
1000
1010
,  // measure 26
0210
0000
0300
0020
0000
0000
0000
0030
,  // measure 27
0100
0101
0001
1001
,  // measure 28
1200
0000
0300
0020
0000
0000
0000
0030
,  // measure 29
2001
0000
3000
0020
0000
0000
0000
0030
,  // measure 30
0200
0000
0000
0000
0000
0300
0002
0000
,  // measure 31
0000
0000
0000
0000
2000
0000
0000
3003
,  // measure 32
MMMM
0000
0000
0000
2000
0000
0000
3000
0200
0000
0000
0300
2000
0000
0000
3000
0200
0000
0000
0000
0300
0000
0000
0000
0000
0000
0000
0020
0000
0230
0000
2300
,  // measure 33
0000
3002
0000
0000
0000
0000
0000
0000
0003
0000
0000
0200
0000
0000
0300
0020
0000
0000
0000
0000
0000
0000
0030
0200
0000
0000
0000
0000
0000
0000
0000
0000
,  // measure 34
0300
0000
0000
0000
0002
0000
0000
0003
0200
0000
0000
0300
0002
0000
0000
0003
0200
0000
0000
0000
0300
0000
0000
0000
0000
0000
0000
0002
0000
0023
0000
0230
,  // measure 35
0000
2300
0000
0000
3000
0000
0000
0000
0000
0000
0000
0020
0000
0030
0000
0220
0000
0000
0000
0000
0330
0000
0000
0000
0000
0000
0000
0002
0000
0003
0000
0202
,  // measure 36
0000
0000
0000
0000
0303
0000
0000
2020
0000
0000
0000
3030
0000
2200
0000
0000
0000
0000
0000
0000
0000
0000
0000
0000
3300
0000
0000
0000
0000
0020
0000
0000
,  // measure 37
0030
0200
0000
0000
0300
0000
0000
0202
0000
0000
0303
0000
0000
2002
0000
0000
0000
0000
0000
0000
0000
0000
0000
0000
3003
0000
0000
0000
0000
0200
0000
0000
,  // measure 38
0300
2001
0000
0000
0000
0000
0000
0002
3000
0003
0000
0000
0000
0220
0000
0000
0000
0000
0000
0000
0000
0000
0000
0000
0000
0000
0000
0000
0330
0000
0000
0000
,  // measure 39
2200
0000
0000
0000
0000
3300
0002
0000
2000
0000
0000
0000
0000
0000
3003
0000
,  // measure 40
1000
0010
1000
0000
,  // measure 41
0001
1000
0001
0000
,  // measure 42
0010
0001
0010
0000
,  // measure 43
0100
1000
0100
0000
,  // measure 44
0010
0001
1000
0000
,  // measure 45
0010
1000
0001
0000
,  // measure 46
0100
0001
1000
0000
,  // measure 47
0100
0000
2000
0002
0000
0000
0000
3003
;
