#VERSION:0.81;
#TITLE:Track09;
#SUBTITLE:;
#ARTIST:DJ MURASAME;
#TITLETRANSLIT:;
#SUBTITLETRANSLIT:;
#ARTISTTRANSLIT:;
#GENRE:;
#ORIGIN:;
#CREDIT:KNS-17;
#BANNER:Track09 [KNS-17].bn.png;
#BACKGROUND:Track09 [KNS-17].bg.png;
#PREVIEWVID:;
#JACKET:Track09 [KNS-17].jacket.png;
#CDIMAGE:;
#DISCIMAGE:;
#LYRICSPATH:;
#CDTITLE:cdtitle.png;
#MUSIC:Track09 [KNS-17].mp3;
#OFFSET:0.000;
#SAMPLESTART:0.020;
#SAMPLELENGTH:12.000;
#SELECTABLE:YES;
#BPMS:0.000=150.001;
#STOPS:;
#DELAYS:;
#WARPS:;
#TIMESIGNATURES:0.000=4=4;
#TICKCOUNTS:0.000=4;
#COMBOS:0.000=1;
#SPEEDS:0.000=1.000=0.000=0;
#SCROLLS:0.000=1.000;
#FAKES:;
#LABELS:0.000=Song Start;
#BGCHANGES:;
#KEYSOUNDS:;
#ATTACKS:
;

//---------------dance-single - KNS-17----------------
#NOTEDATA:;
#CHARTNAME:Blank;
#STEPSTYPE:dance-single;
#DESCRIPTION:KNS-17;
#CHARTSTYLE:Pad;
#DIFFICULTY:Hard;
#METER:8;
#RADARVALUES:0.808,0.712,1.000,0.000,0.409,119.000,26.000,0.000,0.000,0.000,0.000,0.000,0.000,0.808,0.712,1.000,0.000,0.409,119.000,26.000,0.000,0.000,0.000,0.000,0.000,0.000;
#CREDIT:KNS-17;
#NOTES:
1001
0000
1000
0000
0001
0000
0010
0000
1100
0000
0000
0110
0000
0000
0011
0000
,
0000
0000
0010
0000
0001
0000
1000
0000
0001
0000
0001
0100
0000
0100
0010
0000
,
0000
0000
1000
0000
0100
0000
0010
0000
1001
0000
0000
1010
0000
0000
0110
0000
,
0000
0000
0001
0000
0100
0000
1000
0000
0100
0000
0010
1000
0000
1000
0001
0000
,
0001
0000
0010
0000
1000
0000
0100
0000
0001
0000
0000
0001
0000
0000
0001
0000
,
0000
0000
0100
0000
1000
0000
0010
0000
0100
0000
0010
0100
0000
0100
0001
0000
,
0000
0000
0100
0000
0001
0000
1000
0000
0011
0000
0000
1001
0000
0000
1010
0000
,
0000
0000
0010
0000
1000
0000
0100
0000
0010
0000
0001
0100
0000
0100
0010
0000
,
0010
0000
0100
0000
0010
0000
1000
0000
0101
0000
0000
0110
0000
0000
1001
0000
,
0000
0000
1000
0000
0010
0000
0001
0000
0010
0000
1000
0100
0000
0010
0001
0000
,
0100
0000
0010
0000
1000
0000
0001
0000
0110
0000
0000
1010
0000
0000
0101
0000
,
0000
0000
0010
0000
0100
0000
0001
0000
1000
0000
0100
0010
0000
0001
0100
0000
,
0001
0000
1000
0000
0001
0000
0010
0000
1100
0000
0000
0011
0000
0000
0101
0000
,
0000
0000
0010
0000
1000
0000
0001
0000
0010
0000
0100
1000
0000
0001
0010
0000
,
1100
1000
0100
0010
0011
0001
0100
0010
,
1010
0100
1001
0010
0101
1000
0110
0101
;

//---------------dance-single - KNS-17----------------
#NOTEDATA:;
#CHARTNAME:;
#STEPSTYPE:dance-single;
#DESCRIPTION:KNS-17;
#CHARTSTYLE:Pad;
#DIFFICULTY:Medium;
#METER:7;
#RADARVALUES:0.791,0.619,0.429,1.000,0.273,104.000,11.000,27.000,0.000,0.000,0.000,0.000,0.000,0.791,0.619,0.429,1.000,0.273,104.000,11.000,27.000,0.000,0.000,0.000,0.000,0.000;
#CREDIT:KNS-17;
#NOTES:
1001
0000
0002
0000
0100
0000
0103
0000
0020
0000
0000
2000
0000
0030
3200
0000
,
0000
0300
1000
0000
0010
0000
0001
0000
1000
0000
0100
0001
0000
0000
0110
0000
,
0000
0000
2000
0000
0010
0000
3010
0000
0200
0000
0000
0302
0000
0000
0023
0000
,
0000
0030
0100
0000
1000
0000
0010
0000
0001
0000
0100
1000
0000
0000
0210
0000
,
0310
0000
0002
0000
0100
0000
0103
0000
0020
0000
0000
0032
0000
0000
0203
0000
,
0000
0300
1000
0000
0010
0000
0100
0000
0001
0000
0010
0100
0000
0000
0110
0000
,
0000
0000
1000
0000
0010
0000
1000
0000
0002
0000
0000
0023
0000
0000
0230
0000
,
0000
0300
1000
0000
0001
0000
0100
0000
0001
0000
1000
0010
0000
0000
1000
0000
,
0001
0000
0010
0000
1000
0000
0010
0000
0002
0000
0000
2003
0000
0000
3020
0000
,
0000
0030
0100
0000
0001
0000
1000
0000
0100
0000
0010
0100
0000
0000
1100
0000
,
0000
0000
1000
0000
0001
0000
0010
0000
0200
0000
0000
2300
0000
0000
3002
0000
,
0000
0003
1000
0000
0010
0000
0100
0000
0001
0000
1000
0001
0000
0000
0110
0000
,
0100
0000
1000
0000
0010
0000
0100
0000
0020
0000
0000
2030
0000
0000
3002
0000
,
0000
0003
0010
0000
0001
0000
1000
0000
0010
0000
0100
0001
0000
0000
0001
0000
,
2100
3001
0102
1003
,
1010
0000
0110
0000
0101
0000
1000
0001
;

//---------------dance-single - KNS-17----------------
#NOTEDATA:;
#CHARTNAME:;
#STEPSTYPE:dance-single;
#DESCRIPTION:KNS-17;
#CHARTSTYLE:Pad;
#DIFFICULTY:Easy;
#METER:6;
#RADARVALUES:0.635,0.464,0.312,0.780,0.000,86.000,8.000,20.000,0.000,0.000,0.000,0.000,0.000,0.635,0.464,0.312,0.780,0.000,86.000,8.000,20.000,0.000,0.000,0.000,0.000,0.000;
#CREDIT:KNS-17;
#NOTES:
// measure 0
2001
0000
3010
0000
1000
0001
0100
0000
,  // measure 1
1002
0000
0103
0000
0001
1000
0010
0000
,  // measure 2
1200
0000
0310
0000
0001
1000
0010
0000
,  // measure 3
0201
0000
0310
0000
1000
0001
0010
0000
,  // measure 4
2100
0000
3001
0000
1000
0010
0100
0000
,  // measure 5
0012
0000
1003
0000
0001
0100
0010
0000
,  // measure 6
0120
0000
0130
0000
0001
1000
0100
0000
,  // measure 7
0210
0000
0310
0000
0001
1000
0010
1000
,  // measure 8
0002
0000
0203
0000
0310
1000
0001
0000
,  // measure 9
2000
0000
3200
0000
0310
0001
1000
0000
,  // measure 10
0020
0000
2030
0000
3001
0010
0100
0000
,  // measure 11
0020
0000
0032
0000
1003
0010
0100
0010
,  // measure 12
2000
0000
3002
0000
1003
0010
0100
0000
,  // measure 13
0002
0000
2003
0000
3001
0010
0100
0000
,  // measure 14
1000
0010
0100
0000
0001
1000
0100
0000
,  // measure 15
0010
0001
1000
0010
0100
0001
0010
0100
;
