#TITLE:Track08;
#SUBTITLE:xRGTMx;
#ARTIST:DJ MURASAME;
#TITLETRANSLIT:;
#SUBTITLETRANSLIT:;
#ARTISTTRANSLIT:;
#GENRE:;
#CREDIT:;
#BANNER:Track08 [xRGTMx].png;
#BACKGROUND:Track08 [xRGTMx]-bg.png;
#LYRICSPATH:;
#CDTITLE:cdtitle.png;
#MUSIC:Track08.mp3;
#OFFSET:-0.028;
#SAMPLESTART:0.010;
#SAMPLELENGTH:12.800;
#SELECTABLE:YES;
#BPMS:0.000=75.000
,30.000=37.500
,31.000=150.000
;
#STOPS:31.000=1.200
;
#BGCHANGES:;
#KEYSOUNDS:;
#ATTACKS:;

//---------------dance-single - ----------------
#NOTES:
     dance-single:
     :
     Hard:
     7:
     0.362,0.308,0.417,0.382,0.104,50.000,12.000,11.000,0.000,0.000,0.000,0.362,0.308,0.417,0.382,0.104,50.000,12.000,11.000,0.000,0.000,0.000:
2001
0000
0000
0000
0000
3002
0023
2030
,
3200
0000
1000
0300
,
1002
0000
0000
0013
,
2200
0000
0000
0000
0000
0000
0000
0000
0300
0000
0000
0000
0000
0000
0000
0002
0000
0000
0000
0000
0000
0000
0000
0000
3003
0000
0000
0000
0000
0000
0000
0000
,
0110
0010
1000
0001
0011
0010
0100
1000
,
1001
0001
0100
1000
1001
0001
1000
0100
,
0101
0001
0010
0100
1000
0010
0100
0101
,
1010
0010
1000
0100
0022
0000
0033
0000
,
0011
0000
0001
1000
0000
0000
0010
1000
0010
0100
0001
0100
0000
0010
1000
0000
;

//---------------dance-single - xRGTMx----------------
#NOTES:
     dance-single:
     :
     Medium:
     5:
     0.228,0.198,0.208,0.208,0.017,34.000,6.000,6.000,0.000,0.000,0.000,0.228,0.198,0.208,0.208,0.017,34.000,6.000,6.000,0.000,0.000,0.000:
2001
0000
0000
0000
0000
0000
3100
0100
,
0020
0000
0031
0000
,
1002
0000
0000
0103
,
0220
0000
0000
0000
0000
0000
0000
0000
0000
0000
0000
0000
0000
0000
0000
0330
0000
0000
0000
0000
0000
0000
0000
0000
0000
0000
0000
0000
0000
0000
0000
0000
,
1001
1000
0001
0000
1000
1000
0001
0000
,
0100
0100
0010
0000
0100
0100
0010
0000
,
1001
0001
1000
0000
0001
0001
1000
0000
,
0010
0010
0100
0000
0200
0000
0300
0000
,
0100
0000
0000
0100
0000
0000
0000
0000
0010
0000
0000
0000
0110
0000
0000
0000
;

//---------------dance-single - xRGTMx----------------
#NOTES:
     dance-single:
     :
     Easy:
     2:
     0.114,0.103,0.104,0.035,0.000,19.000,3.000,1.000,0.000,0.000,0.000,0.114,0.103,0.104,0.035,0.000,19.000,3.000,1.000,0.000,0.000,0.000: // measure 0
1001
0000
0000
0001
,  // measure 1
0100
0000
0000
0000
,  // measure 2
1001
0000
0000
1000
,  // measure 3
0100
0000
0000
0000
,  // measure 4
1000
1000
0001
0000
,  // measure 5
0001
0001
1000
0000
,  // measure 6
0010
0010
0100
0000
,  // measure 7
0100
0100
0020
0030
,  // measure 8
0000
0000
0110
0000
;

//---------------dance-single - xRGTMx----------------
#NOTES:
     dance-single:
     :
     Beginner:
     1:
     0.079,0.074,0.069,0.035,0.000,13.000,2.000,1.000,0.000,0.000,0.000,0.079,0.074,0.069,0.035,0.000,13.000,2.000,1.000,0.000,0.000,0.000:
1001
0000
0000
0000
,
0100
0000
0000
0000
,
1001
0000
0000
0000
,
0010
0000
0000
0000
,
1000
0000
1000
0000
,
0001
0000
0001
0000
,
0010
0000
0010
0000
,
0100
0000
0200
0300
,
0000
0000
0100
0000
;
