#TITLE:Track07;
#SUBTITLE:;
#ARTIST:DJ MURASAME;
#TITLETRANSLIT:;
#SUBTITLETRANSLIT:;
#ARTISTTRANSLIT:;
#CREDIT:NXCProduction;
#BANNER:Track07 [NXCProduction].png;
#BACKGROUND:Track07 [NXCProduction]-bg.png;
#LYRICSPATH:;
#CDTITLE:cdtitle.png;
#MUSIC:Track07 [NXCProduction].mp3;
#OFFSET:-0.020;
#SAMPLESTART:0.000;
#SAMPLELENGTH:12.000;
#SELECTABLE:YES;
#BPMS:0.000=150.000;
#STOPS:;
#BGCHANGES:;

//---------------dance-single - NXCProduction----------------
#NOTES:
     dance-single:
     NXCProduction:
     Hard:
     7:
     0.447,0.399,0.096,0.530,0.072: // measure 1
2002
0000
0000
3003
,  // measure 2
1000
0100
0010
0001
0000
0001
1000
0001
,  // measure 3
2002
0000
0000
3003
,  // measure 4
0001
0010
0100
1000
0000
1000
0001
1000
,  // measure 5
0010
0100
0010
0000
1000
0000
0001
0000
0000
0000
0100
0000
0010
0000
0000
0000
,  // measure 6
2000
0001
0010
0001
,  // measure 7
3100
0010
0100
0000
0001
0000
1000
0000
0000
0000
0010
0000
0100
0000
0000
0000
,  // measure 8
0002
1000
0100
1003
,  // measure 9
0001
2000
0000
0000
0000
0000
0000
0000
0000
0000
0000
0000
0000
0000
0000
0000
0000
0000
0000
0000
0000
0000
0000
0000
0000
0000
0000
0000
0000
0000
0000
0000
0000
0000
0000
0000
0000
0000
0000
0000
0000
0000
0000
0000
0000
0000
0000
0000
0000
0000
0000
0000
0000
0000
0000
0000
0000
0000
0000
0000
0000
0000
0000
0000
0000
0000
0000
0000
0000
0000
0000
0000
0000
0000
0000
0000
0000
0000
0000
0000
0000
0000
0000
0000
0000
0000
0000
0000
0000
0000
0000
0000
0000
0000
0000
0000
0100
0000
0000
0000
0000
0000
0000
0000
0000
0000
0000
0000
0000
0000
0000
0000
0000
0000
0000
0000
0000
0000
0000
0000
0000
0000
0000
0000
0000
0000
0000
0000
0000
0000
0000
0000
0000
0000
0000
0000
0000
0000
0000
0000
0000
0000
0000
0000
0010
0000
0000
0000
0000
0000
0000
0000
0000
0000
0000
0000
0000
0000
0000
0000
0000
0000
0000
0000
0000
0000
0000
0000
0000
0000
0000
0000
0000
0000
0000
0000
0000
0000
0000
0000
0000
0000
0000
0000
0000
0000
0000
0000
0000
0000
0000
0000
,  // measure 10
3002
0000
0010
1000
,  // measure 11
0203
0000
1000
0010
,  // measure 12
0320
0000
0001
1000
,  // measure 13
2030
0000
0000
3000
;

//---------------dance-single - NXCProduction----------------
#NOTES:
     dance-single:
     NXCProduction:
     Medium:
     4:
     0.303,0.245,0.048,0.289,0.000:
1001
0000
0000
0000
,
1000
0000
0001
1000
0000
1000
0001
0000
,
0002
0000
0000
0000
,
1003
0000
1000
0001
0000
0001
1000
0000
,
2000
0000
0000
0000
,
3010
0000
0010
0100
0000
0100
0010
0000
,
0020
0000
0000
0000
,
0130
0000
0100
0010
0000
0010
0100
0000
,
0200
0000
0000
0000
,
0301
0000
1000
0001
0000
1000
0001
0000
,
0002
0000
0000
0000
,
1003
0000
1000
0001
0000
1000
0001
0000
,
2000
0000
0000
3000
;

//---------------dance-single - NXCProduction----------------
#NOTES:
     dance-single:
     NXCProduction:
     Easy:
     2:
     0.241,0.245,0.048,0.385,0.000:
1001
0000
0000
1000
,
1000
1000
0001
0001
,
2000
0000
0000
0000
,
3001
0001
0001
1000
,
2000
0000
0000
0000
,
3010
0010
0010
0100
,
0200
0000
0000
0000
,
0310
0010
0010
0100
,
0200
0000
0000
0000
,
0302
0000
0000
0000
,
2003
0000
0000
0000
,
3020
0000
0000
0000
,
0230
0000
0000
0300
;
