#TITLE:Track04;
#SUBTITLE:;
#ARTIST:DJ MURASAME;
#TITLETRANSLIT:;
#SUBTITLETRANSLIT:;
#ARTISTTRANSLIT:;
#GENRE:;
#CREDIT:gameboy573;
#BANNER:;
#BACKGROUND:;
#LYRICSPATH:;
#CDTITLE:;
#MUSIC:Track04.mp3;
#OFFSET:-0.020;
#SAMPLESTART:1.540;
#SAMPLELENGTH:15.000;
#SELECTABLE:YES;
#BPMS:0.000=150.000
;
#STOPS:
;
#BGCHANGES:;
#KEYSOUNDS:;
#ATTACKS:;

//---------------dance-single - ----------------
#NOTES:
     dance-single:
     :
     Hard:
     9:
     0.629,0.529,0.275,0.175,0.175,158.000,11.000,7.000,0.000,0.000,0.000,0.629,0.529,0.275,0.175,0.175,158.000,11.000,7.000,0.000,0.000,0.000:
1001
0000
0000
0000
0000
0000
0100
1000
0100
0000
1000
0000
0001
0000
0010
0000
,
0110
0000
0100
1000
0100
0000
0010
0000
,
0001
0000
0010
0001
0010
0000
0100
0000
,
0001
0001
1000
0010
1000
0000
0100
0000
,
1000
0000
0010
0100
0010
0000
0001
0000
,
0010
0000
0000
0000
0001
0000
0100
0000
0010
0000
0000
2000
0000
0000
3100
0000
,
0010
0000
0000
0000
0010
0000
0100
0000
0001
0000
0000
2000
0000
0000
3010
0000
,
0100
0000
0000
0000
0100
0000
1000
0000
0010
0000
0000
2000
0000
0000
3001
0000
,
1001
0000
0000
0000
0001
0000
0000
0001
1000
0000
0100
0000
0010
0000
0001
0000
,
0100
0010
0001
0000
0001
0010
0100
0000
,
1000
0100
0010
0000
0010
0100
1000
0000
,
0001
0100
1000
0000
1000
0100
0001
0000
,
0010
0000
0010
0000
0100
0000
0100
0000
0001
0000
0001
2000
0000
0000
3100
0000
,
1000
0000
0010
0000
1000
0000
0000
0000
0001
0000
0001
0200
0000
0000
0301
0000
,
0010
0000
0100
0000
0010
0000
0000
0000
1000
0000
1000
0200
0000
0000
0310
0000
,
0001
0000
0100
0000
0001
0000
0000
0000
0100
0000
0100
0020
0000
0000
1030
0000
,
0001
0000
1000
0000
0010
0000
0100
0000
0001
0000
1000
0000
0001
1000
0001
1000
,
0010
0100
0010
0000
1000
0001
1000
0000
,
0010
1000
0010
0000
1010
0000
0101
0000
,
0001
0010
0001
0000
1000
0100
1000
0000
,
0010
0100
0010
0000
0110
0000
1001
0000
,
1000
0100
0001
0000
1000
0010
0001
0000
,
0100
0010
0001
0000
0011
0000
1100
0000
,
0010
1000
0100
0000
1000
0010
0100
0000
,
0110
0000
0000
0000
1001
0000
0000
1000
0001
0000
0010
0100
0010
0100
0010
0000
;

//---------------dance-single - ----------------
#NOTES:
     dance-single:
     :
     Easy:
     4:
     0.354,0.310,0.375,0.025,0.000,83.000,15.000,1.000,0.000,0.000,0.000,0.354,0.310,0.375,0.025,0.000,83.000,15.000,1.000,0.000,0.000,0.000:
1001
0000
1000
0001
,
0110
0010
0100
0100
,
1000
1000
0001
0001
,
0100
0100
0010
0010
,
0001
0001
1000
1000
,
0010
0110
0000
1010
,
0000
0101
0000
0011
,
0000
1100
0000
1001
,
0210
0000
0010
0310
,
1000
0100
0010
0000
,
0001
0010
0100
0000
,
0001
0100
1000
0000
,
1000
0010
0001
0000
,
1000
0010
0100
0000
,
0001
0100
0010
0000
,
1000
0010
0100
0000
,
0001
0100
0010
1000
,
0010
0010
0000
0100
,
1000
1000
1001
1001
,
0001
0001
0000
1000
,
0010
0010
0110
0110
,
0100
0100
0000
0001
,
0010
0010
0011
0011
,
0100
1000
0100
0010
,
0001
1000
0001
1000
;

//---------------dance-single - ----------------
#NOTES:
     dance-single:
     :
     Medium:
     6:
     0.440,0.373,0.200,0.000,0.125,115.000,8.000,0.000,0.000,0.000,0.000,0.440,0.373,0.200,0.000,0.125,115.000,8.000,0.000,0.000,0.000,0.000: // measure 0
1001
0000
0000
1000
0001
0000
0001
1000
,  // measure 1
0010
0100
0010
0100
,  // measure 2
1000
0001
1000
0001
,  // measure 3
0010
1000
0010
1000
,  // measure 4
0100
0001
0100
0001
,  // measure 5
0010
0000
0000
0000
1000
0000
0000
0000
0010
0000
0000
0001
0000
0000
0000
0000
,  // measure 6
0100
0000
0000
0000
0001
0000
0000
0000
0100
0000
0000
1000
0000
0000
0000
0000
,  // measure 7
0100
0000
0000
0000
0001
0000
0000
0000
0010
0000
0000
1000
0000
0000
0000
0000
,  // measure 8
1001
0000
0000
0000
0010
0100
0001
1000
,  // measure 9
0010
0000
0000
0000
1000
0000
0000
0000
0010
0000
0000
0100
0000
0000
0000
0000
,  // measure 10
0001
0000
0000
0000
0100
0000
0000
0000
0001
0000
0000
0010
0000
0000
0000
0000
,  // measure 11
0100
0000
0000
0000
0010
0000
0000
0000
0100
0000
0000
1000
0000
0000
0000
0000
,  // measure 12
0001
0000
0000
0000
1000
0000
0000
0000
0001
0000
0000
0010
0000
0000
0000
0000
,  // measure 13
0100
0000
0010
0000
0100
0000
0000
0000
1000
0000
0000
0001
0000
0000
0000
0000
,  // measure 14
0010
0000
0001
0000
0010
0000
0000
0000
0100
0000
0000
1000
0000
0000
0000
0000
,  // measure 15
0010
0000
1000
0000
0010
0000
0000
0000
0100
0000
0000
0001
0000
0000
0000
0000
,  // measure 16
1000
0100
0010
0001
1000
0100
0010
0001
,  // measure 17
1000
0010
0000
0000
0100
0001
0000
0000
,  // measure 18
0010
0001
0010
0000
0110
0000
1001
0000
,  // measure 19
0010
1000
0000
0000
0100
0001
0000
0000
,  // measure 20
0010
0001
0010
0000
0101
0000
1010
0000
,  // measure 21
0100
0010
0000
0000
1000
0001
0000
0000
,  // measure 22
0001
0100
0001
0000
0110
0000
1001
0000
,  // measure 23
1000
0100
0000
0000
0010
0100
0000
0000
,  // measure 24
0001
1000
0001
0000
0100
0010
0100
0010
;
