#TITLE:Track03;
#SUBTITLE:;
#ARTIST:DJ MURASAME;
#TITLETRANSLIT:;
#SUBTITLETRANSLIT:;
#ARTISTTRANSLIT:;
#CREDIT:DigiMindAxel;
#BANNER:Track03.png;
#BACKGROUND:Track03-bg.png;
#LYRICSPATH:;
#CDTITLE:DigiMindAxel original simfile.png;
#MUSIC:Track03.mp3;
#OFFSET:-0.020;
#SAMPLESTART:12.820;
#SAMPLELENGTH:12.000;
#SELECTABLE:YES;
#BPMS:0.000=150.000;
#STOPS:;
#BGCHANGES:;

//---------------dance-single - ----------------
#NOTES:
     dance-single:
     :
     Easy:
     3:
     0.212,0.273,0.012,0.135,0.000:
1001
0000
1000
0000
,
0001
0000
1000
0000
,
0010
0000
0010
0000
,
0100
0000
0100
0000
,
0001
0000
1000
0000
,
0001
0000
1000
0000
,
0100
0000
0100
0000
,
0010
0000
0020
0000
,
0032
0000
2003
0000
,
3002
0000
2003
0000
,
3010
0100
0010
0000
,
0100
0010
0200
0000
,
0301
1000
0001
0000
,
1000
0001
1000
0000
,
0100
1000
0100
0000
,
0010
0001
0020
0000
,
0130
0000
1000
0010
,
0100
0000
0010
0100
,
0010
0000
0100
0001
,
0010
0000
0001
1000
,
0001
0000
0010
0001
,
0100
0000
0010
0100
,
0010
0000
0100
0010
,
1000
0000
0001
1000
,
0001
0000
1000
0010
,
1000
0000
0001
0100
,
0001
0000
1000
0000
,
0001
0000
1000
0000
,
0010
0100
0010
0000
,
0100
0010
0100
0000
,
0001
1000
0001
0000
,
1000
0001
1000
0000
,
0010
0000
0100
0000
,
0001
0000
0001
0000
,
1000
0000
1000
0000
,
0001
0000
0001
0000
,
0010
0000
0100
0000
,
0020
0000
0000
0000
,
0230
0000
0000
0000
,
0320
0000
0000
0000
,
0130
0000
0000
0000
,
0100
0000
0000
0000
,
0100
0000
0000
0000
,
0100
0000
0000
0000
,
0001
0000
0000
0000
,
1000
0000
0002
0000
,
0000
0000
1003
0000
,
0001
0000
1000
0000
,
0000
0000
0010
0000
,
0000
0000
0010
0000
;

//---------------dance-single - ----------------
#NOTES:
     dance-single:
     :
     Medium:
     6:
     0.434,0.485,0.012,0.343,0.000: // measure 1
1001
0001
0001
0001
,  // measure 2
0100
0100
0100
0100
,  // measure 3
0010
2000
0000
3010
2000
0000
3010
0000
,  // measure 4
0100
0002
0000
0103
0002
0000
0103
0000
,  // measure 5
0010
0010
0010
0010
,  // measure 6
1000
1000
1000
1000
,  // measure 7
0001
0020
0000
0031
0020
0000
0031
0000
,  // measure 8
0100
2000
0000
3100
2000
0000
3002
0000
,  // measure 9
1003
0000
0100
1000
0100
0000
0010
0001
,  // measure 10
0010
0000
0001
0010
0001
0000
1000
0100
,  // measure 11
1000
0002
0000
1003
0002
0000
1003
0000
,  // measure 12
0010
0200
0000
0310
0200
0000
0320
0000
,  // measure 13
1030
0000
0001
0100
0001
0000
0100
0001
,  // measure 14
0100
0000
0010
1000
0010
0000
1000
0010
,  // measure 15
1000
0002
0000
1003
0002
0000
0013
0000
,  // measure 16
0100
0020
0000
0130
0020
0000
0032
0000
,  // measure 17
1003
0000
0001
0100
0001
0000
1000
0100
,  // measure 18
1000
0000
0010
0100
0010
0000
1000
0001
,  // measure 19
1000
0100
0000
0100
0010
0000
0001
0000
,  // measure 20
0010
0100
0000
0100
1000
0000
0001
1000
,  // measure 21
0001
0100
0001
0000
0010
0100
0010
0000
,  // measure 22
0001
1000
0001
0000
1000
0100
1000
0000
,  // measure 23
0001
0010
0000
0010
0100
0000
0010
0000
,  // measure 24
0001
0100
0000
0100
0010
0000
1000
0001
,  // measure 25
1000
0100
1000
0000
0100
0010
0100
0000
,  // measure 26
1000
0010
1000
0000
0001
1000
0001
0000
,  // measure 27
0010
0100
0000
0100
1000
0000
0001
0000
,  // measure 28
1000
0010
0000
0010
0100
0000
0001
1000
,  // measure 29
0001
0100
0001
0000
1000
0010
1000
0000
,  // measure 30
0010
0100
0010
0000
1000
0001
1000
0000
,  // measure 31
0001
0100
0000
0100
0010
0000
1000
0000
,  // measure 32
0100
0010
0000
0010
0001
0000
1000
0000
,  // measure 33
0010
0100
0010
0000
0100
0001
1000
0000
,  // measure 34
0100
1000
0100
0000
1000
0001
1000
0000
,  // measure 35
0001
0100
0000
0100
0010
0000
1000
0000
,  // measure 36
0100
0010
0000
0010
0001
0000
1000
0000
,  // measure 37
0100
0010
0001
1000
,  // measure 38
0020
0000
0230
0000
,  // measure 39
0302
0000
0000
1003
0000
0000
0000
0000
,  // measure 40
0020
0000
0000
0130
0000
0000
0000
0000
,  // measure 41
0002
0000
0000
0000
,  // measure 42
1003
0000
0010
0000
,  // measure 43
0200
0000
0000
0310
,  // measure 44
0100
0000
0001
0000
,  // measure 45
2000
0000
0000
3001
,  // measure 46
0200
0000
0320
0000
,  // measure 47
0000
0000
1030
0000
,  // measure 48
0001
0000
1000
0000
,  // measure 49
0000
0000
0100
0000
,  // measure 50
0000
0000
0100
0000
;

//---------------dance-single - ----------------
#NOTES:
     dance-single:
     :
     Hard:
     8:
     0.571,0.607,0.012,0.527,0.270: // measure 1
1002
0000
0013
0001
0100
0000
0100
0001
,  // measure 2
0010
0000
0100
1000
0010
0000
0010
1000
,  // measure 3
0100
0200
0000
0310
0020
0000
0031
1000
,  // measure 4
0001
0002
0000
1003
2000
0000
3010
0100
,  // measure 5
0001
0000
0000
0001
0000
0000
0010
0000
0100
0000
0000
1000
0000
0000
0100
0000
,  // measure 6
0010
0000
0000
0001
0000
0000
0100
0000
0010
0000
0000
1000
0000
0000
0010
0000
,  // measure 7
0100
0200
0000
0310
0020
0000
1030
0001
,  // measure 8
1000
0000
2000
0000
0000
0000
3001
0000
0100
0001
0100
0000
0010
0100
0010
0100
,  // measure 9
0020
0000
0000
1030
0000
0000
0100
0000
0020
0000
0000
0031
0000
0000
0010
0000
,  // measure 10
0200
0000
0000
1300
0000
0000
0010
0000
0200
0000
0000
0301
0000
0000
1000
0000
,  // measure 11
0100
0000
0010
0000
0100
0000
1000
0000
0002
0000
0000
1003
0000
0000
0001
0000
,  // measure 12
0010
0000
0100
0000
1000
0000
0001
0000
0100
0010
0100
0000
0001
0100
0001
0100
,  // measure 13
0001
0000
0000
0010
0000
0000
1000
0000
0020
0000
0000
0031
0000
0000
1000
0000
,  // measure 14
0020
0000
0000
0031
0000
0000
0010
0000
2000
0000
0000
3001
0000
0000
1000
0000
,  // measure 15
0001
0001
0010
0100
0100
1000
0001
0000
,  // measure 16
0010
0000
0010
0000
0100
0000
1000
0000
0001
1000
0001
0000
0010
0001
0010
0001
,  // measure 17
0010
0000
0000
0001
1000
0000
0000
0000
0010
0000
0000
0010
0100
0000
0000
0100
,  // measure 18
0002
0000
0000
1000
0000
0000
1003
0000
0200
0000
0000
0010
0000
0000
0310
0000
,  // measure 19
0001
0001
1000
0100
0100
1000
0001
0000
,  // measure 20
0100
0000
0100
0000
0001
0000
1000
0000
2000
0000
0000
0001
0000
0000
3001
0000
,  // measure 21
0100
0000
0000
0010
1000
0000
0000
0000
0001
0000
0000
0001
0010
0000
0000
0010
,  // measure 22
0200
0000
0000
1000
0000
0000
1300
0000
0020
0000
0000
0100
0000
0000
0130
0000
,  // measure 23
0001
0001
1000
0010
0010
1000
0001
0000
,  // measure 24
0010
0000
0010
0000
0100
0000
1000
0000
2000
0000
0000
0001
0000
0000
3001
0000
,  // measure 25
0100
0000
0000
0010
1000
0000
0100
0000
0010
0000
0000
0001
0100
0000
0010
0000
,  // measure 26
0100
0000
0000
0001
1000
0000
0100
0000
1000
0000
0000
0010
0100
0000
0001
0000
,  // measure 27
1000
1000
0001
0010
0010
0001
1000
0000
,  // measure 28
0010
0000
0010
0000
0100
0000
0001
0000
2000
0000
0000
0001
0000
0000
3001
0000
,  // measure 29
1000
0000
0000
0010
0100
0000
0001
0000
0010
0000
0000
0001
1000
0000
0100
0000
,  // measure 30
0010
0000
0000
0100
1000
0000
0001
0000
0200
0000
0000
0010
0000
0000
0310
0000
,  // measure 31
1000
1000
0001
0100
0100
0001
1000
0000
,  // measure 32
0010
0000
0010
0000
0100
0000
0001
0000
0002
0000
0000
1000
0000
0000
1003
0000
,  // measure 33
0001
0010
0100
0000
0100
0010
0001
0000
,  // measure 34
0010
0100
1000
0000
1000
0100
0010
0000
,  // measure 35
0001
0001
0100
1000
2000
0000
3100
0000
,  // measure 36
0001
0001
0100
1000
2000
0000
3100
0000
,  // measure 37
0001
1000
0010
0100
,  // measure 38
0002
0000
2003
0000
,  // measure 39
3010
0100
0000
0100
0020
0000
0000
0000
,  // measure 40
0130
0010
0000
0010
0200
0000
0000
0000
,  // measure 41
0302
0000
1000
1003
,  // measure 42
0200
0000
0320
0000
,  // measure 43
0032
0000
1000
1003
,  // measure 44
0020
0000
0230
0000
,  // measure 45
0302
0000
1000
1003
,  // measure 46
0002
0000
0203
0000
,  // measure 47
0000
0000
0320
0000
,  // measure 48
0000
0000
2030
0000
,  // measure 49
0000
0000
3002
0000
,  // measure 50
0000
0000
1003
0000
;

//---------------dance-single - ----------------
#NOTES:
     dance-single:
     :
     Beginner:
     1:
     0.067,0.108,0.012,0.000,0.000:
1001
0000
0000
0000
,
1000
0000
0000
0000
,
0001
0000
0000
0000
,
0001
0000
0000
0000
,
1000
0000
0000
0000
,
1000
0000
0000
0000
,
1000
0000
0000
0000
,
0010
0000
0000
0000
,
0100
0000
0000
0000
,
0000
0000
0000
0000
,
0100
0000
0000
0000
,
0001
0000
0000
0000
,
1000
0000
0000
0000
,
0000
0000
0000
0000
,
0001
0000
0000
0000
,
1000
0000
0000
0000
,
0010
0000
0000
0000
,
0010
0000
0000
0000
,
0100
0000
0000
0000
,
0001
0000
0000
0000
,
1000
0000
0000
0000
,
0001
0000
0000
0000
,
0010
0000
0000
0000
,
0100
0000
0000
0000
,
1000
0000
0000
0000
,
0001
0000
0000
0000
,
1000
0000
0000
0000
,
1000
0000
0000
0000
,
0001
0000
0000
0000
,
0001
0000
0000
0000
,
1000
0000
0000
0000
,
0001
0000
0000
0000
,
0100
0000
0000
0000
,
0000
0000
0000
0000
,
0100
0000
0000
0000
,
0000
0000
0000
0000
,
0100
0000
0000
0000
,
0000
0000
0000
0000
,
0010
0000
0000
0000
,
0000
0000
0000
0000
,
0100
0000
0000
0000
,
0000
0000
0000
0000
,
0100
0000
0000
0000
,
0000
0000
0000
0000
,
0100
0000
0000
0000
;
