#TITLE:Track01;
#SUBTITLE:xRGTMx;
#ARTIST:DJ MURASAME;
#TITLETRANSLIT:;
#SUBTITLETRANSLIT:;
#ARTISTTRANSLIT:;
#GENRE:;
#CREDIT:;
#BANNER:banner.png;
#BACKGROUND:background.png;
#LYRICSPATH:;
#CDTITLE:cdtitle.png;
#MUSIC:Track01.mp3;
#OFFSET:-0.017;
#SAMPLESTART:0.000;
#SAMPLELENGTH:12.000;
#SELECTABLE:YES;
#BPMS:0.000=150.000
;
#STOPS:
;
#BGCHANGES:;
#KEYSOUNDS:;
#ATTACKS:;

//---------------dance-single - xRGTMx----------------
#NOTES:
     dance-single:
     :
     Hard:
     9:
     0.737,0.622,0.052,0.417,0.521,180.000,2.000,16.000,0.000,0.000,0.000,0.737,0.622,0.052,0.417,0.521,180.000,2.000,16.000,0.000,0.000,0.000: // measure 0
2001
0000
0010
0010
,  // measure 1
3002
0000
0010
0010
,  // measure 2
2003
3200
0302
0023
,  // measure 3
2030
3020
0032
0203
,  // measure 4
1300
0100
0001
0100
1000
0010
0001
0010
,  // measure 5
1000
0001
0010
0100
1000
0010
0100
0001
,  // measure 6
0010
1000
0010
0001
0100
1000
0100
0001
,  // measure 7
0010
0000
0100
0000
1000
0000
0001
0100
0001
0100
0010
0000
1000
0000
0001
0000
,  // measure 8
1000
0000
0000
1000
0001
0000
0000
0001
0010
0000
0000
0010
0100
0000
0000
0100
,  // measure 9
1000
0000
0000
1000
0010
0000
0000
0010
0100
0000
0000
0100
0001
0000
0000
0001
,  // measure 10
1000
0000
0000
1000
0100
0000
0000
0100
0001
0000
0000
0001
0100
0000
0000
0100
,  // measure 11
1000
0000
0000
1000
0010
0000
0000
0010
0001
0000
0000
0001
0010
0000
0000
0010
,  // measure 12
1000
0000
0000
0100
0001
0000
0000
0100
1000
0000
0000
0010
0001
0000
0000
0010
,  // measure 13
0100
0000
0000
0001
0010
0000
0000
1000
0010
0000
0000
0001
0100
0000
0000
0010
,  // measure 14
0100
0000
0000
0001
1000
0000
0000
0100
0010
0000
0000
0100
1000
0000
0000
0001
,  // measure 15
2000
0000
0000
0000
0000
0000
3010
1000
0010
0100
0010
0000
0100
0000
0101
0000
,  // measure 16
0001
0000
0010
0000
0100
0000
1000
0000
0001
0100
1000
0000
0100
0000
0001
0000
,  // measure 17
1000
0000
0010
0000
0100
0000
0001
0000
1000
0100
0001
0000
0100
0000
1000
0000
,  // measure 18
0010
0000
0100
0000
0001
0000
0010
0000
0100
0010
0001
0000
0100
0000
0001
0000
,  // measure 19
0010
0000
0100
0000
1000
0000
0010
0000
0100
0010
1000
0000
0100
0000
0010
0000
,  // measure 20
0002
0000
0000
0000
2003
0000
0010
0000
3010
1000
0100
0000
1000
0000
0001
0000
,  // measure 21
2000
0000
0000
0000
3002
0000
0010
0000
0013
0001
0100
0000
0001
0000
1000
0000
,  // measure 22
0010
0001
1000
0100
0001
0010
1000
0001
,  // measure 23
0200
0000
0000
0000
0000
0000
1300
0100
1000
0001
1000
0000
0010
0000
0100
0000
;

//---------------dance-single - Blank----------------
#NOTES:
     dance-single:
     :
     Medium:
     7:
     0.517,0.498,0.208,0.313,0.026,119.000,8.000,12.000,0.000,0.000,0.000,0.517,0.498,0.208,0.313,0.026,119.000,8.000,12.000,0.000,0.000,0.000:
1002
0000
0010
0000
,
2003
0000
0010
0000
,
3002
0100
2003
0100
,
3002
0010
2003
0010
,
3001
0000
1000
0100
1000
0000
0010
0000
,
0100
0000
0001
0010
0001
0000
1000
0000
,
0001
0011
0110
1100
,
2001
3020
0032
0203
,
1300
0000
0001
1000
0010
0000
0100
0000
,
0001
0010
0100
0000
0010
0000
1001
0000
,
0001
0000
1000
0001
0010
0000
0100
0000
,
1000
0010
0100
0000
0010
0000
1001
0000
,
1000
0000
0001
1000
0100
0000
0010
0000
,
0001
0100
0010
0000
0100
0000
1001
0000
,
0001
0000
1000
0001
0100
0000
0010
0000
,
2000
0000
0000
0000
0000
0000
3000
0001
1000
0000
0001
0000
0010
0000
0100
0000
,
1000
0010
1000
0000
0001
0010
0001
0000
,
1000
0010
1000
0000
0001
0010
0001
0000
,
1000
0100
1000
0000
0001
0100
0001
0000
,
1000
0100
1000
0000
0001
0100
0001
0000
,
1000
0100
0010
0000
0001
0100
0010
0000
,
1000
0010
0100
0000
0001
0010
0100
0000
,
1000
0100
0001
0000
0001
0100
1000
0000
,
0020
0000
0000
0000
0000
0000
0030
0100
0010
0000
1000
0000
0001
0000
0100
0000
;

//---------------dance-single - Blank----------------
#NOTES:
     dance-single:
     :
     Easy:
     5:
     0.346,0.340,0.052,0.182,0.000,84.000,2.000,7.000,0.000,0.000,0.000,0.346,0.340,0.052,0.182,0.000,84.000,2.000,7.000,0.000,0.000,0.000:
1001
0000
0000
0000
,
0100
0000
0000
0000
,
0001
0000
0010
0000
,
1000
0000
0100
0000
,
0001
0001
1000
0000
,
1000
1000
0001
0000
,
0001
0100
1000
0000
,
0100
0000
0010
0100
0010
0000
0000
0000
,
1000
0100
0001
0100
,
1000
0001
1000
1000
,
0001
0100
1000
0100
,
0001
1000
0001
0001
,
1000
0100
0010
1000
,
0001
0100
0010
0001
,
1000
0010
0100
0001
,
2002
0000
3003
0000
1000
0001
1000
0000
,
0002
0010
1000
0100
,
2003
0010
0001
0100
,
3002
0100
1000
0010
,
2003
0100
0001
0010
,
3001
1000
0010
0010
,
1000
0001
0010
0010
,
0100
0000
1000
0001
1000
0000
0001
0000
,
0020
0000
0000
0000
0130
0010
0100
0000
;

//---------------dance-single - Blank----------------
#NOTES:
     dance-single:
     :
     Beginner:
     1:
     0.197,0.184,0.104,0.000,0.000,49.000,4.000,0.000,0.000,0.000,0.000,0.197,0.184,0.104,0.000,0.000,49.000,4.000,0.000,0.000,0.000,0.000:
1001
0000
0000
0000
,
0100
0000
0000
0000
,
0001
0000
0000
0000
,
1000
0000
0000
0000
,
0010
0000
0010
0000
,
0010
0000
0010
0000
,
0100
0000
0100
0000
,
1001
0000
0000
0000
,
1000
0000
0001
0000
,
1000
0000
0001
0000
,
0100
0000
0010
0000
,
0100
0000
0010
0000
,
1000
0000
0001
0000
,
1000
0000
0001
0000
,
0010
0000
0100
0000
,
0010
0000
1001
0000
,
1000
1000
1000
0000
,
0001
0001
0001
0000
,
1000
1000
1000
0000
,
0001
0001
0001
0000
,
0100
0100
0100
0000
,
0010
0010
0010
0000
,
0100
0000
0010
0000
,
0100
0000
1001
0000
;

//---------------dance-single - xRGTMx----------------
#NOTES:
     dance-single:
     :
     Challenge:
     11:
     0.878,0.778,0.078,0.417,0.638,217.000,3.000,16.000,0.000,0.000,0.000,0.878,0.778,0.078,0.417,0.638,217.000,3.000,16.000,0.000,0.000,0.000: // measure 0
1002
0000
0100
0100
,  // measure 1
2003
0000
0100
0100
,  // measure 2
3002
0023
2030
3200
,  // measure 3
0302
0203
2300
3020
,  // measure 4
0031
0010
1000
0010
0001
0100
1000
0100
,  // measure 5
0001
1000
0100
0010
0001
0100
0010
1000
,  // measure 6
0100
0001
0100
1000
0010
0001
0010
1000
,  // measure 7
0100
0000
0010
0000
0001
0000
1000
0010
1000
0010
0100
0000
0001
0000
0001
0000
,  // measure 8
1001
0000
1000
0001
1000
0000
0100
1000
0100
0000
0010
0100
0010
0000
0001
0010
,  // measure 9
0001
0000
0100
0001
0100
0000
0010
0100
0010
0000
1000
0010
1000
0000
0001
1000
,  // measure 10
0001
0000
0010
0001
0010
0000
0100
0010
0100
0000
0010
1000
0010
0000
0001
0010
,  // measure 11
0001
0000
0100
0001
0100
0000
1000
0100
1000
0000
0100
0010
0100
0000
0001
0100
,  // measure 12
0001
0000
1000
0010
1000
0000
0001
0010
0001
0000
1000
0100
1000
0000
0010
0100
,  // measure 13
0010
0000
0100
1000
0100
0000
0100
0001
0100
0000
0010
1000
0010
0000
0010
0100
,  // measure 14
0010
0000
1000
0001
1000
0000
0001
1000
0001
0000
0100
0010
0100
0000
0001
1000
,  // measure 15
0002
0000
0000
0000
0000
0000
0103
0001
0100
0010
0100
0000
0010
0000
1010
0000
,  // measure 16
1000
0000
0100
0000
0010
0000
0001
0000
1000
0010
0001
0010
1000
0000
0001
0000
,  // measure 17
0001
0000
0100
0000
0010
0000
1000
0000
0001
0010
1000
0010
0001
0000
0001
0000
,  // measure 18
0100
0000
0010
0000
1000
0000
0100
0000
0010
0100
1000
0010
0100
0000
1000
0000
,  // measure 19
0100
0000
0010
0000
1000
0000
0001
0000
0010
0100
0001
0100
0010
0000
0100
0000
,  // measure 20
2000
0000
0000
0000
3002
0000
0100
0000
0103
0001
0010
0000
0001
0000
1000
0000
,  // measure 21
0002
0000
0000
0000
2003
0000
0100
0000
3100
1000
0010
0000
1000
0000
0001
0000
,  // measure 22
0100
0000
0001
0100
0001
0010
0100
0000
1000
0100
1000
0001
1000
0010
0100
0000
,  // measure 23
0020
0000
0000
0000
0000
0000
1030
0010
1000
0001
1000
0000
0100
0000
0010
0000
;
