#TITLE:Scripted Connection⇒;
#SUBTITLE:-original extended-;
#ARTIST:DJ MURASAME;
#TITLETRANSLIT:;
#SUBTITLETRANSLIT:;
#ARTISTTRANSLIT:;
#GENRE:TECHNO;
#CREDIT:;
#BANNER:;
#BACKGROUND:;
#LYRICSPATH:;
#CDTITLE:;
#MUSIC:Scripted Connection.mp3;
#OFFSET:-3.587;
#SAMPLESTART:32.227;
#SAMPLELENGTH:12.715;
#SELECTABLE:YES;
#DISPLAYBPM:*;
#BPMS:0.000=302.000
,456.000=151.000
,460.000=302.000
,492.000=151.000
,500.000=302.000
,516.000=151.000
,524.000=302.000
,1016.000=151.000
,1018.000=302.000
,1046.000=151.000
,1048.000=302.000
,1112.000=604.000
,1114.000=302.000
,1121.000=604.000
,1123.000=302.000
,1130.000=604.000
,1132.000=302.000
,1135.000=604.000
,1137.000=302.000
,1140.000=151.000
,1144.000=302.000
,1272.000=151.000
,1296.000=302.000
,1486.000=604.000
,1488.000=302.000
,1518.000=604.000
,1520.000=302.000
,1772.000=151.000
,1774.000=302.000
,1802.000=151.000
,1804.000=604.000
,2060.000=37.750
;
#STOPS:1486.000=0.199,
1518.000=0.199
;
#BGCHANGES:;
#KEYSOUNDS:;
#ATTACKS:;

//---------------dance-single - ----------------
#NOTES:
     dance-single:
     :
     Challenge:
     13:
     1.000,1.000,0.228,0.892,0.143,3225.000,93.000,364.000,0.000,0.000,0.000,1.000,1.000,0.228,0.892,0.143,3225.000,93.000,364.000,0.000,0.000,0.000: // measure 0
1001
0000
1000
0001
0100
0010
0100
0001
,  // measure 1
0010
1000
0010
0001
0010
0000
0011
0000
,  // measure 2
1100
0000
1000
0010
0100
0010
1000
0100
,  // measure 3
0010
0001
0010
0001
0010
0001
0020
0000
0000
0030
0000
0000
,  // measure 4
0011
0000
0010
0100
0001
1000
0001
1000
,  // measure 5
0010
0100
0010
0100
1000
0000
0011
0000
,  // measure 6
1100
0000
0000
0000
0000
0000
0010
0000
0000
0001
0000
0000
1000
0000
0100
0000
1000
0000
0100
0000
1000
0000
0100
0000
,  // measure 7
0010
0001
0100
0001
1000
0100
0010
0001
,  // measure 8
1001
0000
0000
0010
0100
0010
0100
0000
0000
1001
0000
0000
,  // measure 9
1000
0100
0010
1000
0010
0000
0100
0010
,  // measure 10
0001
1000
0001
1000
0010
1000
0100
0010
,  // measure 11
0001
1000
0001
1000
0001
1000
0002
0000
0000
0000
0000
0000
,  // measure 12
1003
0000
0001
0001
1000
0000
0001
0001
,  // measure 13
1000
0000
0001
0001
1000
0000
0001
0001
,  // measure 14
1000
1000
1000
1000
,  // measure 15
1000
0000
1000
0000
1000
0000
0000
0000
1000
0001
1000
0000
0001
0000
1000
0000
,  // measure 16
1001
0000
0100
0010
1000
0002
0003
0002
,  // measure 17
0003
0002
0003
0001
1000
0100
0010
0001
,  // measure 18
1001
0000
1000
0100
0010
1000
0010
0001
,  // measure 19
0100
0001
0100
0001
0100
0001
2000
0000
0000
3000
0000
0000
,  // measure 20
1001
0000
0100
0010
0001
2000
3000
2000
,  // measure 21
3000
2000
3000
1000
0001
0010
0100
1000
,  // measure 22
1001
0000
0000
0000
0000
0000
0010
0000
0000
0100
0000
0000
0001
0000
0100
0000
0001
0000
0100
0000
0001
0000
0100
0000
,  // measure 23
0010
0001
1000
0010
0100
0001
1000
0010
,  // measure 24
0100
0000
0010
0010
1000
0202
0303
0202
,  // measure 25
0303
0202
0303
1000
0010
0100
0001
0010
,  // measure 26
0001
0000
1000
0100
1000
0100
0001
0000
,  // measure 27
1000
0100
1000
0100
0002
0000
0003
0000
,  // measure 28
1000
0000
0000
0000
0000
0000
0010
0000
0000
0100
0000
0000
2002
0000
3003
0000
0000
0000
1000
0000
0000
0000
0000
0000
,  // measure 29
0001
0000
0000
1000
0000
0000
0001
0000
0000
1000
0000
0000
0001
0000
0000
0000
0000
0000
1000
0000
0000
0000
0000
0000
0001
0000
0000
0000
0000
0000
0220
0000
0000
0000
0330
0000
0000
0000
0000
0000
0000
0000
0220
0000
0000
0000
0330
0000
,  // measure 30
1000
0000
0000
0001
0000
0000
0100
0000
0000
0010
0000
0000
1000
0000
0010
0000
1000
0000
0010
0000
1000
0000
0010
0000
,  // measure 31
1000
0100
0001
0100
1000
0001
1000
0002
,  // measure 32
2000
0000
0000
0000
,  // measure 33
0000
0000
0000
0000
,  // measure 34
0000
0000
0000
0000
,  // measure 35
0000
0000
0000
0000
3003
0002
2003
3002
,  // measure 36
1003
0010
0100
0001
2000
0000
0000
3100
,  // measure 37
1000
0100
0010
0100
1000
0100
0010
0010
,  // measure 38
0001
0010
0100
0010
0100
1000
0010
0100
,  // measure 39
0010
0100
0001
0010
0100
1000
0010
0100
,  // measure 40
0001
0010
0100
1000
0002
0000
0000
1003
,  // measure 41
0010
0010
0100
0010
0010
0100
0010
0100
,  // measure 42
0001
0100
0010
1000
0100
0001
0100
1000
,  // measure 43
0010
0001
0010
1000
0100
1000
0001
1000
,  // measure 44
0010
0100
1000
0100
2000
0000
0000
3100
,  // measure 45
0010
1000
0100
1000
0010
0001
0010
1000
,  // measure 46
0010
0100
0001
1000
0001
1000
0010
1000
,  // measure 47
0100
0001
0100
0010
0001
1000
0010
0001
,  // measure 48
0010
0100
0001
1000
0002
0000
0000
1003
,  // measure 49
0100
0001
0010
1000
0100
0001
0010
1000
,  // measure 50
0001
0100
0010
0001
0010
0100
1000
0100
,  // measure 51
0010
1000
0001
0100
0010
1000
0001
0100
,  // measure 52
0001
0010
0100
1000
0001
0010
0100
1000
,  // measure 53
0001
0010
0100
1000
0001
0010
0100
1000
,  // measure 54
0001
0010
0100
1000
0001
0010
0100
1000
,  // measure 55
0001
0010
0100
1000
0001
0010
0100
1000
,  // measure 56
1000
0100
0010
0001
1000
0100
0010
0001
,  // measure 57
1000
0100
0010
0001
1000
0100
0010
0001
,  // measure 58
1000
0100
0010
0001
1000
0100
0010
0001
,  // measure 59
1000
0100
0010
0001
1000
0100
0010
0001
,  // measure 60
0001
0010
0100
1000
0001
0010
0100
1000
,  // measure 61
0001
0010
0100
1000
0001
0010
0100
1000
,  // measure 62
1000
0100
0010
0001
1000
0100
0010
0001
,  // measure 63
1000
0100
0010
0001
1000
0100
0010
0001
,  // measure 64
0001
0010
0100
1000
0001
0010
0100
1000
,  // measure 65
1000
0100
0010
0001
1000
0100
0010
0001
,  // measure 66
0001
0010
1000
0010
0100
1000
0100
1000
,  // measure 67
0001
0010
0100
1000
0001
1000
0001
1000
,  // measure 68
0001
0000
0001
0001
0000
0001
0001
0001
,  // measure 69
0001
0000
0001
0000
0001
0010
0000
1000
,  // measure 70
0001
0000
0001
0001
0000
0001
0001
0001
,  // measure 71
0001
0000
0001
0001
1000
0000
0100
0000
,  // measure 72
0001
0000
0001
0001
0000
0001
0001
0001
,  // measure 73
0001
0000
0001
0000
0001
0010
0000
1000
,  // measure 74
0001
0000
0001
0001
0000
0001
0001
0001
,  // measure 75
0010
1000
0001
0100
0001
1000
0100
1000
,  // measure 76
1000
0000
1000
1000
0000
1000
1000
1000
,  // measure 77
1000
0000
1000
0000
1000
0010
0000
0001
,  // measure 78
1000
0000
1000
1000
0000
1000
1000
1000
,  // measure 79
1000
0000
1000
1000
0001
0000
0100
0000
,  // measure 80
1000
0000
1000
1000
0000
1000
1000
1000
,  // measure 81
1000
0000
1000
0000
1000
0010
0000
0001
,  // measure 82
1000
0000
1000
1000
0000
1000
1000
1000
,  // measure 83
0100
1000
0001
0010
0100
1000
0001
0010
,  // measure 84
0100
1000
0010
0100
0001
0010
0100
1000
,  // measure 85
0001
0000
1000
0000
0100
0000
0010
0000
0001
1000
0001
0000
0010
0000
0100
0000
,  // measure 86
1000
0100
0010
0001
0100
0010
0100
0010
,  // measure 87
1000
0001
0010
0000
0100
0000
1000
0000
0010
0000
0001
0000
0100
0000
0010
0000
,  // measure 88
1000
0001
0010
0100
0010
1000
0010
0001
,  // measure 89
0100
0010
1000
1000
0010
0100
0001
0001
,  // measure 90
2000
0000
0001
0001
3002
0000
1000
1000
,  // measure 91
2003
0000
0001
0001
3002
0000
1000
1000
,  // measure 92
1003
0100
0001
0100
0010
0010
0001
0100
,  // measure 93
0001
0000
0000
0010
0000
0000
1000
0000
0000
0010
0000
0000
0100
0000
0000
1000
0000
0000
0001
0000
0010
0000
0100
0000
,  // measure 94
1000
0001
0010
0001
1000
0010
0100
0010
,  // measure 95
1000
0000
0000
0100
0000
0000
0001
0000
0000
0010
0000
0000
1000
0000
0100
0000
0010
0000
1000
0000
0000
0000
0000
0000
,  // measure 96
0010
0100
0001
0010
0001
0100
1000
0001
,  // measure 97
1000
1000
0010
0010
0100
1000
0001
0100
,  // measure 98
1000
0000
0000
0001
0000
0000
0010
0000
0000
0100
0000
0000
1000
0000
0001
0000
0100
0000
0001
0000
1000
0000
0100
0000
,  // measure 99
1000
0000
0000
1000
0000
0000
0001
0000
0000
0001
0000
0000
1000
0000
0001
0000
1000
0000
0001
0000
1000
0000
0001
0000
,  // measure 100
1000
0100
0100
0001
0010
1000
0001
1000
,  // measure 101
0001
0000
0000
0010
0000
0000
0100
0000
0000
1000
0000
0000
0001
0000
0000
0100
0000
0000
0010
0000
1000
0000
0010
0000
,  // measure 102
1000
1000
0001
0100
0001
0010
0001
0100
,  // measure 103
0001
0001
1000
0100
1000
0010
1000
0100
,  // measure 104
1000
0100
0010
0001
1000
0100
0010
0001
,  // measure 105
1000
0100
1000
0100
0010
0001
1000
0100
,  // measure 106
1000
0010
0100
0001
1000
0010
0100
0001
,  // measure 107
1000
0010
1000
0010
0100
0001
1000
0010
,  // measure 108
1000
0100
0010
0001
0100
0010
1000
0100
,  // measure 109
0010
0001
0100
0010
1000
0001
0100
0010
,  // measure 110
1000
0010
1000
0010
0100
0001
0100
0001
,  // measure 111
0010
0001
0010
0100
1000
0100
1000
0001
,  // measure 112
0100
0010
1000
0001
0100
0010
1000
0001
,  // measure 113
0100
0010
1000
0001
1000
0001
0100
0010
,  // measure 114
1000
0100
0010
0001
1000
0100
0010
0001
1000
0100
0010
0001
1000
0100
0010
0001
,  // measure 115
0020
0130
2000
3002
0103
0020
2030
3001
,  // measure 116
0020
0130
2000
3002
0103
0020
2030
3001
,  // measure 117
0020
0130
2000
3002
0103
0020
2030
3001
,  // measure 118
0020
0130
2000
3002
0103
0020
2030
3001
,  // measure 119
0200
0301
2000
3020
1030
0200
0320
0031
,  // measure 120
0200
0301
2000
3020
1030
0200
0320
0031
,  // measure 121
0200
0301
2000
3020
1030
0200
0320
0031
,  // measure 122
0200
0301
2000
3020
1030
0200
0320
0031
,  // measure 123
2000
3100
0002
0203
0310
0002
2003
3100
2000
3100
0002
0203
0310
0002
2003
3100
,  // measure 124
2000
3100
0002
0203
0310
0002
2003
3100
2000
3100
0002
0203
0310
0002
2003
3100
,  // measure 125
0020
0031
0200
0320
1030
0200
0320
0130
,  // measure 126
0020
0031
0200
0320
1030
0200
0320
0130
,  // measure 127
0020
0031
0200
0320
1030
0200
0320
0130
,  // measure 128
0020
0031
0200
0320
1030
0200
0320
0130
,  // measure 129
0020
0000
1000
1000
0000
0001
0001
0000
0230
0000
1000
1000
0000
0001
0001
0000
,  // measure 130
0320
0000
1000
1000
0000
0001
0001
0000
0230
0000
1000
1000
0000
0001
0001
0000
,  // measure 131
2300
3100
0020
0032
0103
2000
3200
0301
,  // measure 132
2000
3100
0020
0032
0103
2000
3200
0301
,  // measure 133
2000
3100
0020
0032
0103
2000
3200
0301
,  // measure 134
2000
3100
0020
0032
0103
2000
3200
0301
,  // measure 135
0200
1300
0200
0302
0103
2000
3200
0301
,  // measure 136
0200
1300
0200
0302
0103
2000
3200
0301
,  // measure 137
0200
1300
0200
0302
0103
2000
3200
0301
,  // measure 138
0200
1300
0200
0302
0103
2000
3200
0301
,  // measure 139
0020
0031
2000
3020
1030
0002
0023
0130
,  // measure 140
2000
3001
0200
0320
1030
0002
0023
0130
,  // measure 141
0002
0103
2000
3020
0130
0002
0203
0301
,  // measure 142
2000
3010
0200
0320
1030
0020
0230
0301
,  // measure 143
1000
0000
0100
1000
0000
0100
1000
0100
,  // measure 144
1000
0000
0100
0000
1000
0001
0000
1000
,  // measure 145
0100
0000
1000
0100
0000
1000
0100
1000
,  // measure 146
0100
0000
1000
0100
1000
0000
0001
0000
,  // measure 147
1000
0000
0100
1000
0000
0100
1000
0100
,  // measure 148
1000
0000
0100
0000
1000
0001
0000
1000
,  // measure 149
0100
0000
1000
0100
0000
1000
0100
1000
,  // measure 150
0001
0010
0100
1000
0001
0010
0100
1000
,  // measure 151
0001
0000
0100
0001
0000
0100
0001
0100
,  // measure 152
0001
0000
0100
0000
0001
1000
0000
0001
,  // measure 153
0100
0000
0001
0100
0000
0001
0100
0001
,  // measure 154
0100
0000
0001
0100
0001
0000
1000
0000
,  // measure 155
0001
0000
0100
0001
0000
0100
0001
0100
,  // measure 156
0001
0000
0100
0000
0001
1000
0000
0001
,  // measure 157
0100
0000
0001
0100
0000
0001
0100
0001
,  // measure 158
1000
0100
0010
0001
1000
0100
0010
0001
,  // measure 159
1000
0000
0100
1000
0000
0100
1000
0100
,  // measure 160
1000
0000
0100
0000
1000
0001
0000
1000
,  // measure 161
0100
0000
1000
0100
0000
1000
0100
1000
,  // measure 162
0100
0000
1000
0100
1000
0000
0001
0000
,  // measure 163
1000
0000
0100
1000
0000
0100
1000
0100
,  // measure 164
1000
0000
0100
0000
1000
0001
0000
1000
,  // measure 165
0100
0000
1000
0100
0000
1000
0100
1000
,  // measure 166
0001
0010
0100
1000
0001
0010
0100
1000
,  // measure 167
0001
0000
0100
0001
0000
0100
0001
0100
,  // measure 168
0001
0000
0100
0000
0001
1000
0000
0001
,  // measure 169
0100
0000
0001
0100
0000
0001
0100
0001
,  // measure 170
0100
0000
0001
0100
0001
0000
1000
0000
,  // measure 171
0001
0000
0100
0001
0000
0100
0001
0100
,  // measure 172
0001
0000
0100
0000
0001
1000
0000
0001
,  // measure 173
0100
0000
0001
0100
0000
0001
0100
0001
,  // measure 174
1000
0100
0010
0001
1000
0100
0010
0001
,  // measure 175
1000
0000
0010
0000
0100
0001
0000
0001
,  // measure 176
0010
0000
0001
0000
1000
0100
0000
0100
,  // measure 177
1000
0100
0010
0001
1000
0100
0010
0001
,  // measure 178
1000
0100
0010
0001
1000
0100
0010
0001
,  // measure 179
1000
0000
0010
0000
0100
0001
0000
0001
,  // measure 180
0010
0000
0001
0000
1000
0100
0000
0100
,  // measure 181
1000
0100
0010
0001
1000
0100
0010
0001
,  // measure 182
1000
0100
0010
0001
1000
0100
0010
0001
,  // measure 183
1000
0000
0010
0000
0100
0001
0000
0001
,  // measure 184
0010
0000
0001
0000
1000
0100
0000
0100
,  // measure 185
1000
0100
0010
0001
1000
0100
0010
0001
,  // measure 186
1000
0100
0010
0001
1000
0100
0010
0001
,  // measure 187
1100
0000
0010
0001
1100
0000
0010
0001
,  // measure 188
1100
0000
0010
0001
1100
0000
0010
0001
,  // measure 189
1100
0011
0101
1010
,  // measure 190
1001
0000
1001
0000
1001
0000
0000
0000
1000
0001
1000
0000
0010
0000
0100
0000
,  // measure 191
0001
0010
0100
0000
1000
0010
0100
0001
,  // measure 192
0000
1000
0001
0000
0110
0000
1001
0000
,  // measure 193
0100
0001
0100
1000
0100
0000
0001
1000
,  // measure 194
0000
0001
1000
0000
0110
0000
0110
0000
,  // measure 195
1000
0010
0100
0001
0010
0100
1000
0001
,  // measure 196
1000
0000
0001
0000
1000
0000
0001
0000
0000
0000
0000
0000
1000
0000
0000
0100
0000
0000
0010
0000
0000
0001
0000
0000
,  // measure 197
1000
0010
1000
0000
0001
0010
0001
0000
,  // measure 198
2000
0010
3002
0010
,  // measure 199
0003
1000
0001
0000
1000
0001
0000
0001
,  // measure 200
1000
0000
1000
0000
0010
0100
0010
0100
,  // measure 201
0010
1000
0001
0000
0010
0001
0100
0001
,  // measure 202
0010
0001
1000
0010
0100
0000
1001
0000
,  // measure 203
1000
0010
0000
0010
0100
0000
0001
0000
,  // measure 204
1000
0100
1000
0010
0100
0000
0001
0000
,  // measure 205
1100
0000
0010
0001
0101
0000
0010
1000
,  // measure 206
1001
0000
0000
0110
0000
0000
1000
0010
0100
0010
0100
0001
,  // measure 207
1000
0100
0010
0001
0100
0001
1000
0010
,  // measure 208
1000
0100
0010
0001
0100
0001
1000
0010
,  // measure 209
1000
0100
0010
0001
0100
0001
1000
0010
,  // measure 210
1000
0100
0010
0001
0100
0001
1000
0010
,  // measure 211
1000
0000
0001
0000
0100
0010
0000
0010
,  // measure 212
1000
0000
0001
0000
0010
0100
0000
0100
,  // measure 213
1000
0010
0100
0000
0001
0010
0100
0000
,  // measure 214
1000
0010
0100
0000
0001
0010
0100
0000
,  // measure 215
0001
0010
0100
0010
0100
1000
0001
0010
,  // measure 216
0100
0010
0100
1000
0001
0010
0100
1000
,  // measure 217
0001
0010
0100
0010
0100
1000
0001
0010
,  // measure 218
0100
0010
0100
1000
0001
0010
0100
1000
,  // measure 219
0001
0100
0010
0000
1000
0001
0100
0010
,  // measure 220
1000
0100
0010
0000
0001
1000
0100
0010
,  // measure 221
0002
2000
3003
2000
0002
3003
0002
2000
,  // measure 222
3003
0000
0000
2000
0000
0000
0002
0000
0000
3003
0000
0000
1000
0000
0100
0000
0010
0000
0001
0000
0010
0000
0100
0000
,  // measure 223
1001
0100
0000
0100
0000
0100
0000
0001
,  // measure 224
1000
0100
0000
0100
0000
0100
0000
1000
,  // measure 225
0010
0100
0000
0100
0000
0100
0000
0001
,  // measure 226
1000
0100
0000
0100
0000
0100
0000
0100
,  // measure 227
0010
0100
0000
0100
0000
0100
0000
1000
,  // measure 228
0001
0100
0000
0100
0000
0100
0000
0001
,  // measure 229
0010
0100
0000
0100
0000
0100
0000
1000
,  // measure 230
0001
0100
0000
0100
0000
0100
0000
0100
,  // measure 231
0010
1000
0010
0100
0010
0001
0010
0100
,  // measure 232
0010
1000
0010
0100
0010
0001
0010
0100
,  // measure 233
0010
1000
0010
0100
0010
0001
0010
0100
,  // measure 234
0010
1000
0010
0100
0010
0001
0010
0100
,  // measure 235
0001
0010
0100
0001
0100
0010
0001
0010
,  // measure 236
0100
0001
0100
0010
0001
0010
0100
0000
,  // measure 237
1000
0010
0100
1000
0100
0010
1000
0010
,  // measure 238
0100
0000
0000
1000
0000
0000
0100
0000
0000
0010
0000
0000
1000
0000
0100
0000
0010
0000
0001
0000
0100
0000
0010
0000
,  // measure 239
2002
3003
0100
0001
0100
0010
0000
1000
,  // measure 240
0001
0100
0001
0000
1000
0100
1000
0000
,  // measure 241
0001
0000
0100
0001
0100
0010
0000
1000
,  // measure 242
0001
0100
0001
0000
1000
0100
1000
0000
,  // measure 243
0001
0000
0100
0001
0100
0010
0000
1000
,  // measure 244
0001
0100
0001
0000
1000
0100
1000
0000
,  // measure 245
0001
0000
0100
0001
0100
0010
0000
1000
,  // measure 246
0001
0100
0001
0000
1000
0100
1000
0000
,  // measure 247
0001
0000
0100
0001
0100
0010
0000
1000
,  // measure 248
0001
0100
0001
0000
1000
0100
1000
0000
,  // measure 249
0001
0000
0100
0001
0100
0010
0000
1000
,  // measure 250
0001
0100
0001
0000
1000
0100
1000
0000
,  // measure 251
0002
0003
0200
0302
0203
0320
0030
2000
,  // measure 252
3002
0203
0302
0003
2000
3200
2300
3000
,  // measure 253
0011
1100
1010
0101
,  // measure 254
2000
0000
0020
0030
3002
0000
0020
0030
1003
0000
0100
0000
0010
0000
0001
0000
,  // measure 255
0010
0100
1000
0001
1000
0000
0001
0000
,  // measure 256
1000
0000
0001
0000
1000
0000
0100
1000
,  // measure 257
0100
0010
0000
0001
1000
0100
1000
0000
,  // measure 258
0001
0100
0001
0000
1000
0100
0010
0001
,  // measure 259
0010
0100
1000
0001
1000
0000
0001
0000
,  // measure 260
1000
0000
0001
0000
1000
0000
0100
1000
,  // measure 261
0100
0000
0010
0000
0000
0000
0001
0000
2000
0000
0200
0300
3002
0000
0200
0300
,  // measure 262
1003
0100
0010
0001
0010
0100
1000
0001
,  // measure 263
1000
0001
1000
0001
,  // measure 264
1000
0000
0100
1000
0100
0010
0000
0001
,  // measure 265
1000
0100
1000
0000
0001
0100
0001
0000
,  // measure 266
1000
0100
0010
0001
0010
0100
1000
0001
,  // measure 267
1000
0001
1000
0001
,  // measure 268
1000
0000
0100
1000
0100
0010
0000
0001
,  // measure 269
1000
0100
1000
0000
0001
0100
0001
0000
,  // measure 270
1000
0100
0010
0001
0010
0100
1000
0001
,  // measure 271
1000
0001
1000
0001
,  // measure 272
1000
0000
0100
1000
0100
0010
0000
0001
,  // measure 273
1000
0100
1000
0000
0001
0100
0001
0000
,  // measure 274
1000
0100
0010
0001
0010
0100
1000
0001
,  // measure 275
1000
0001
1000
0001
,  // measure 276
1000
0000
0100
1000
0100
0010
0000
0001
,  // measure 277
1000
0100
1000
0000
0001
0100
0001
0000
,  // measure 278
2002
0000
0000
0000
3003
0000
1000
0100
,  // measure 279
0001
0000
0001
0100
1000
0000
1000
0100
,  // measure 280
0001
2002
0000
3003
,  // measure 281
0001
0100
1000
0000
1000
0100
0001
0000
,  // measure 282
0001
0100
1000
0000
2002
0000
0000
0000
,  // measure 283
3003
0000
1000
0100
0010
0001
2002
0000
,  // measure 284
0000
0000
3003
0000
0001
0010
0100
1000
,  // measure 285
0200
0310
0200
0310
0200
0310
0200
0310
,  // measure 286
1001
0000
0100
0010
1000
0100
0010
0001
,  // measure 287
1000
1000
0000
0010
0000
0010
0000
0010
,  // measure 288
0100
0001
0010
0001
1000
0010
0100
0010
,  // measure 289
1000
1000
0000
0100
0000
0100
0000
0100
,  // measure 290
0010
0100
1000
0001
0100
0010
1000
0001
,  // measure 291
0010
0100
0000
1100
0000
0110
0000
0011
,  // measure 292
0010
0001
0010
0001
1000
0010
0000
1000
,  // measure 293
0001
0010
0100
1000
0002
0000
0003
0000
,  // measure 294
1001
0000
0010
0100
0001
0010
0100
1000
,  // measure 295
0001
0001
0000
0100
0000
0100
0000
0100
,  // measure 296
0010
1000
0100
1000
0001
0100
0010
0100
,  // measure 297
0001
0001
0000
0010
0000
0010
0000
0010
,  // measure 298
0100
0010
0001
1000
0010
0100
0001
1000
,  // measure 299
0100
0010
0000
0011
0000
0110
0000
1100
,  // measure 300
0100
1000
0100
1000
0001
0100
0000
0001
,  // measure 301
1000
0100
0010
0001
2000
0000
3000
0000
,  // measure 302
1100
0000
0000
0000
0000
0000
0010
0000
0000
0100
0000
0000
0010
0000
0000
0100
0000
0000
0010
0000
0001
0000
0010
0000
,  // measure 303
0001
0010
0100
0010
0001
0010
0100
1000
,  // measure 304
0010
0000
0100
0000
0001
0000
0010
0000
0001
0000
0100
0000
0010
0000
1000
0001
,  // measure 305
1000
0100
0010
0001
0010
0001
0010
0100
,  // measure 306
0010
0001
1000
0100
0010
0001
1000
0100
,  // measure 307
0010
0001
0100
0010
0100
0001
0010
0001
,  // measure 308
1000
0010
0100
0010
1000
0010
0100
0010
,  // measure 309
1000
0100
0000
0100
0000
0100
0000
0100
,  // measure 310
1000
0100
0010
1000
0001
0100
0010
0001
,  // measure 311
1000
0000
0100
0000
0010
0000
0001
0000
0000
1000
0000
0000
0001
0000
0100
0000
0010
0000
1000
0000
0000
0001
0000
0000
,  // measure 312
1000
0000
0010
0000
1000
0000
0010
0000
1000
0000
0002
0003
0000
0000
0200
0300
,  // measure 313
0001
0010
0001
1000
0001
0100
0001
0100
,  // measure 314
0002
0000
0020
0003
0230
0300
1000
0000
0001
0000
0010
0000
0100
0000
1000
0000
,  // measure 315
0100
0000
1000
0000
0100
0000
1000
0000
0001
0000
0020
0030
0002
0000
0023
0000
,  // measure 316
0001
0030
1000
0000
0001
0000
1000
0000
0001
0000
1000
0000
0001
0000
1000
0000
,  // measure 317
0001
1000
0000
1000
0000
1000
0000
1000
,  // measure 318
1020
0000
1000
1000
0000
0000
0000
0000
0000
0000
0001
0001
0000
0001
0001
0000
,  // measure 319
0001
0000
0001
0001
0000
0000
0000
0000
0000
0000
1000
1000
0000
1000
1000
0000
,  // measure 320
1000
0000
1000
1000
0000
0000
0000
0000
0000
0000
0001
0001
0000
0001
0001
0000
,  // measure 321
0001
0000
0001
0001
0000
0000
0000
0000
0000
0000
1000
1000
0000
1000
1000
0000
,  // measure 322
1000
0000
1000
1000
0000
0000
0000
0000
0000
0000
0001
0001
0000
0001
0001
0000
,  // measure 323
0001
0000
0001
0001
0000
0000
0000
0000
0000
0000
1000
1000
0000
1000
1030
0000
,  // measure 324
1001
0100
0010
0001
1000
0100
0010
0001
,  // measure 325
1000
0000
0100
1000
0000
0100
1000
0100
,  // measure 326
1000
0000
0100
0000
1000
0001
0000
1000
,  // measure 327
0100
0000
1000
0100
0000
1000
0100
1000
,  // measure 328
0001
0010
0100
1000
0001
0010
0100
1000
,  // measure 329
0001
0000
0100
0001
0000
0100
0001
0100
,  // measure 330
0001
0000
0100
0000
0001
1000
0000
0001
,  // measure 331
0100
0000
0001
0100
0000
0001
0100
0001
,  // measure 332
1001
0100
0010
0001
1000
0100
0010
0001
,  // measure 333
1000
0000
0100
1000
0000
0100
1000
0100
,  // measure 334
1000
0000
0100
0000
1000
0001
0000
1000
,  // measure 335
0100
0000
1000
0100
0000
1000
0100
1000
,  // measure 336
0001
0010
0100
1000
0001
0010
0100
1000
,  // measure 337
0001
0000
0100
0001
0000
0100
0001
0100
,  // measure 338
0001
0000
0100
0000
0001
1000
0000
0001
,  // measure 339
0100
0000
0001
0100
0000
0001
0100
0001
,  // measure 340
0100
0000
0100
0000
0100
1000
0100
1000
,  // measure 341
0100
0000
0100
0000
0100
0001
0100
0001
,  // measure 342
0100
0000
0100
0000
0100
1000
0100
1000
,  // measure 343
0100
0000
0100
0000
0100
0001
0100
0001
,  // measure 344
0100
0000
0100
0000
0100
1000
0100
1000
,  // measure 345
0100
0000
0100
0000
0100
0001
0100
0001
,  // measure 346
0100
0000
0100
0000
0100
1000
0100
1000
,  // measure 347
0100
0000
0100
0000
0100
0001
0100
0001
,  // measure 348
0100
0000
0100
0000
0100
1000
0100
1000
,  // measure 349
0100
0000
0100
0000
0100
0001
0100
0001
,  // measure 350
0100
0000
0100
0000
0100
1000
0100
1000
,  // measure 351
0100
0000
0100
0000
0100
0001
0100
0001
,  // measure 352
0100
0000
0100
0000
0100
1000
0100
1000
,  // measure 353
0100
0000
0100
0000
0100
0001
0100
0001
,  // measure 354
0100
0000
0100
0000
0100
1000
0100
1000
,  // measure 355
0100
0000
0100
0000
0100
0001
0100
0001
,  // measure 356
0100
0000
0100
0000
0100
1000
0100
1000
,  // measure 357
0100
0000
0100
0000
0100
0001
0100
0001
,  // measure 358
0100
0000
0100
0000
0100
1000
0100
1000
,  // measure 359
0100
0000
0100
0000
0100
0001
0100
0001
,  // measure 360
0100
0000
0100
0000
0100
1000
0100
1000
,  // measure 361
0100
0000
0100
0000
0100
0001
0100
0001
,  // measure 362
0100
0000
0100
0000
0100
1000
0100
1000
,  // measure 363
0100
0000
0100
0000
0100
0001
0100
0001
,  // measure 364
0100
0000
0001
2000
3100
0000
1000
0002
,  // measure 365
0103
0000
0001
2000
3100
0000
1000
0002
,  // measure 366
0103
0000
0001
2000
3100
0000
1000
0002
,  // measure 367
0103
0000
0001
2000
3100
0000
1000
0002
,  // measure 368
0103
0000
0001
2000
3100
0000
1000
0002
,  // measure 369
0103
0000
0001
2000
3100
0000
1000
0002
,  // measure 370
0103
0100
0100
0100
,  // measure 371
0100
0010
0100
0000
2002
0000
0000
3003
,  // measure 372
0110
0001
1000
0001
,  // measure 373
1000
0001
1000
0001
,  // measure 374
1000
0001
1000
0001
,  // measure 375
1000
0001
1000
0001
,  // measure 376
1000
0010
0100
0001
,  // measure 377
1000
0010
0100
0001
,  // measure 378
1000
0010
0100
0001
,  // measure 379
1000
0000
0001
0000
2000
0000
0000
3000
,  // measure 380
1000
0001
1000
0001
,  // measure 381
1000
0001
1000
0001
,  // measure 382
1000
0001
1000
0001
,  // measure 383
1000
0001
1000
0001
,  // measure 384
1000
0010
0100
0001
,  // measure 385
1000
0010
0100
0001
,  // measure 386
1000
0010
0100
0001
,  // measure 387
1000
0010
0100
0001
,  // measure 388
1000
0002
1003
0002
,  // measure 389
1003
0002
1003
0002
,  // measure 390
1003
0002
1003
0002
,  // measure 391
1003
0002
1003
0002
,  // measure 392
1003
0002
1003
0002
,  // measure 393
1003
0002
1003
0002
,  // measure 394
1003
0002
1003
0002
,  // measure 395
2003
3002
2003
3002
,  // measure 396
1003
0000
0002
0000
2003
3000
0002
1000
,  // measure 397
0103
0000
0020
0000
0230
0300
0020
0100
,  // measure 398
1030
0000
0002
0000
2003
3000
0002
1000
,  // measure 399
0013
0000
0200
0000
0320
0030
0200
0010
,  // measure 400
2300
0000
3002
0000
2003
3000
0002
1000
,  // measure 401
0203
0000
0320
0000
0230
0300
0020
0100
,  // measure 402
2030
3002
2003
3002
,  // measure 403
1003
0010
1000
0100
1000
0010
1000
0100
,  // measure 404
1000
0100
0010
0001
1000
0100
0010
0001
,  // measure 405
1000
0010
0100
1000
0100
0010
0001
0010
,  // measure 406
0100
0001
0010
0001
1000
0010
1000
0100
,  // measure 407
0010
0100
1000
0001
1000
0010
1000
0010
,  // measure 408
1000
0100
0010
0100
1000
0010
0100
0010
,  // measure 409
1000
0100
0010
0001
0010
0100
0010
0001
,  // measure 410
0010
0100
0010
0001
0010
0100
1000
0010
,  // measure 411
0100
0001
0010
0100
1000
0010
0100
0010
,  // measure 412
1000
0100
0010
0100
1000
0100
0010
0001
,  // measure 413
0010
0100
0010
0001
0010
0100
1000
0100
,  // measure 414
0010
0100
1000
0100
0010
0100
1000
0100
,  // measure 415
1000
0100
0010
0001
1000
0100
0010
0001
,  // measure 416
1000
0010
1000
0010
1000
0100
1000
0100
,  // measure 417
0010
0001
0010
0001
0100
0001
0100
0001
,  // measure 418
1000
0010
1000
0010
1000
0100
1000
0100
,  // measure 419
0010
0001
0010
0001
0100
0001
0100
0001
,  // measure 420
1000
0010
0100
0001
1000
0010
0100
0001
,  // measure 421
0010
0001
1000
0100
0010
0001
1000
0100
,  // measure 422
0010
0001
0100
1000
0100
0010
0100
0010
,  // measure 423
1000
0001
0100
1000
0100
0010
0100
0001
,  // measure 424
1000
0100
0010
0100
1000
0100
0001
0100
,  // measure 425
1000
0100
0010
0100
1000
0100
0001
0100
,  // measure 426
1000
0100
0001
0100
1000
0010
0001
0010
,  // measure 427
1000
0100
0010
0001
0100
0010
0100
0010
,  // measure 428
0100
0010
1000
0100
0010
0001
0100
0010
,  // measure 429
0100
0010
1000
0010
0100
0001
0100
0010
,  // measure 430
1000
0100
0010
0100
1000
0010
0100
1000
,  // measure 431
0100
0001
0010
0100
0010
0001
0100
0010
,  // measure 432
0100
0001
0010
0100
1000
0100
0010
0001
,  // measure 433
0100
0010
0100
0010
1000
0100
0010
0100
,  // measure 434
1000
0000
0000
0000
0000
0000
0000
0000
0200
0300
0000
0000
0000
0000
0000
0000
0020
0000
0030
0000
0000
0000
0000
0000
0002
0000
0000
0003
0000
0000
0000
0000
2000
0000
0000
0000
3000
0000
0000
0000
0200
0000
0000
0000
0000
0300
0000
0000
0020
0000
0000
0000
0000
0000
0030
0000
0002
0000
0000
0000
0000
0000
0000
0003
,  // measure 435
2000
0000
0000
0000
0000
0000
0000
0000
3200
0000
0000
0000
0000
0000
0000
0000
0020
0300
0000
0000
0000
0000
0000
0000
0002
0000
0030
0000
0000
0000
0000
0000
2000
0000
0000
0003
0000
0000
0000
0000
0200
0000
0000
0000
3000
0000
0000
0000
0020
0000
0000
0000
0000
0300
0000
0000
0002
0000
0000
0000
0000
0000
0030
0000
,  // measure 436
1000
0000
0000
0000
0000
0000
0000
0003
0100
0000
0000
0000
0000
0000
0000
0000
1000
0000
0000
0000
0000
0000
0000
0000
0100
0000
0000
0000
0000
0000
0000
0000
1000
0000
0000
0000
0000
0000
0000
0000
0001
0000
0000
0000
0000
0000
0000
0000
0100
0000
0000
0000
0000
0000
0000
0000
0000
0000
0000
0000
0000
0000
0000
0000
,  // measure 437
0001
0100
0001
0100
0001
1000
0100
0000
,  // measure 438
1000
0100
1000
0100
1000
0001
0100
0000
,  // measure 439
0001
0100
0001
0100
0001
1000
0100
0000
,  // measure 440
1000
0100
1000
0100
1000
0001
0100
0000
,  // measure 441
0001
0100
0001
0100
0001
1000
0100
0000
,  // measure 442
1000
0100
1000
0100
1000
0001
0100
0000
,  // measure 443
2002
0000
0000
3003
0001
0010
0001
0010
,  // measure 444
0001
1000
0010
0000
1000
0010
1000
0010
,  // measure 445
1000
0001
0010
0000
0001
0010
0001
0010
,  // measure 446
0001
1000
0010
0000
1000
0010
1000
0010
,  // measure 447
1000
0001
0010
0000
0001
0010
0001
0010
,  // measure 448
0001
1000
0010
0000
1000
0010
1000
0010
,  // measure 449
1000
0001
0010
0000
0001
0010
0001
0010
,  // measure 450
0001
1000
0010
0000
2002
0000
0000
3003
,  // measure 451
1000
0100
0010
0001
,  // measure 452
0010
0100
1000
0001
,  // measure 453
1000
0100
0010
0001
,  // measure 454
0010
0100
1000
0001
,  // measure 455
1000
0100
0010
0001
,  // measure 456
0010
0100
1000
0001
,  // measure 457
1000
0100
0010
0001
,  // measure 458
0010
0100
1000
0001
,  // measure 459
1000
0100
0001
0100
,  // measure 460
1000
0100
0010
0100
,  // measure 461
0001
0100
1000
0100
,  // measure 462
0001
0100
0010
0100
,  // measure 463
1000
0100
0001
0100
,  // measure 464
1000
0100
0010
0100
,  // measure 465
0001
0100
1000
0100
,  // measure 466
0001
0100
0010
0100
,  // measure 467
1000
0010
1000
0100
,  // measure 468
1000
0010
0100
0001
,  // measure 469
0010
0001
0100
0001
,  // measure 470
0010
0001
0100
0010
,  // measure 471
1000
0010
1000
0100
,  // measure 472
1000
0010
0100
0001
,  // measure 473
0010
0001
0100
0001
,  // measure 474
0010
0001
0100
0010
,  // measure 475
1000
0010
0001
0010
,  // measure 476
0100
0010
0100
0010
,  // measure 477
1000
0100
0001
0100
,  // measure 478
0010
0100
0010
0100
,  // measure 479
1000
0010
0001
0010
,  // measure 480
0100
0010
0100
0010
,  // measure 481
1000
0100
0001
0100
,  // measure 482
0010
0100
0010
0100
,  // measure 483
1000
0100
0001
0100
,  // measure 484
1000
0100
0001
0100
,  // measure 485
1000
0100
0001
0100
,  // measure 486
1000
0100
0001
0100
,  // measure 487
1000
0010
0001
0010
,  // measure 488
1000
0010
0001
0010
,  // measure 489
1000
0010
0001
0010
,  // measure 490
1000
0010
0001
0010
,  // measure 491
2002
3003
1000
0001
,  // measure 492
0100
0010
1000
0001
,  // measure 493
0220
0330
0100
0010
,  // measure 494
1000
0001
0100
0010
,  // measure 495
2002
3003
1000
0001
,  // measure 496
0100
0010
1000
0001
,  // measure 497
0220
0330
0100
0010
,  // measure 498
1000
0001
0100
0010
,  // measure 499
2002
3003
1000
0001
,  // measure 500
0220
0330
0100
0010
,  // measure 501
2020
3030
0202
0303
,  // measure 502
0022
0033
2200
3300
,  // measure 503
2002
3003
1000
0001
,  // measure 504
0220
0330
0100
0010
,  // measure 505
2020
3030
0202
0303
,  // measure 506
0022
0033
2200
3300
,  // measure 507
2002
3003
1000
0001
,  // measure 508
2002
3003
1000
0001
,  // measure 509
2002
3003
1000
0001
,  // measure 510
2002
3003
1000
0001
,  // measure 511
2002
3003
2002
3003
,  // measure 512
2002
3003
2002
3003
,  // measure 513
2002
3003
2002
3003
,  // measure 514
2002
3003
1000
0001
,  // measure 515
0110
1001
0000
0000
;
