#TITLE:thank u, next;
#SUBTITLE:;
#ARTIST:Ariana Grande;
#TITLETRANSLIT:;
#SUBTITLETRANSLIT:;
#ARTISTTRANSLIT:;
#CREDIT:;
#BANNER:thank u, next banner.png;
#BACKGROUND:thank u, next bg.png;
#LYRICSPATH:;
#CDTITLE:;
#MUSIC:thank u, next.mp3;
#OFFSET:-10.900;
#SAMPLESTART:46.760;
#SAMPLELENGTH:15.000;
#SELECTABLE:YES;
#BPMS:0.000=107.080;
#STOPS:;
#BGCHANGES:;

//---------------dance-single - ----------------
#NOTES:
     dance-single:
     :
     Hard:
     6:
     0.359,0.307,0.101,0.159,0.152:
1000
0100
0001
0000
0010
1000
0100
0010
,
0100
0010
0001
0000
0100
0010
1000
0001
,
0010
1000
0001
0000
0100
0010
1000
0100
,
1000
0001
0010
0000
0100
0100
0010
0100
,
0001
0010
0100
0000
0010
0100
1000
0000
,
1000
0010
0100
0000
0001
0100
0010
1000
,
0010
0000
0100
0000
0001
0000
0100
0010
,
0010
0000
1000
0000
0001
0010
0100
1000
,
0200
0000
0310
0000
0001
0100
0010
0100
,
1000
0000
0000
0001
0000
0000
1000
0000
0100
0000
0010
0000
0100
0000
0001
0000
,
0020
0000
0000
0000
0130
0000
0001
0000
0010
0000
0000
1000
0000
0000
0010
0000
,
0100
0000
0000
0001
0000
1000
0100
0000
0010
0000
0100
0000
0001
0000
0010
0000
,
2000
0000
0000
0000
3010
0000
0100
0000
0001
0000
0000
0010
0000
0000
0001
0000
,
0010
0000
0000
0100
0000
0000
0010
0000
1000
0000
0001
0000
1000
0000
0010
0000
,
0200
0000
0000
0000
0310
0000
0000
0000
1000
0000
0000
0001
0000
0000
1000
0000
,
0010
0000
0000
0200
0000
0000
0300
0000
0010
0000
0001
0000
0010
0000
0100
0000
,
0110
0000
0000
0000
0010
0000
0000
0002
0000
0000
0103
0000
0100
0000
0000
0000
,
1100
0000
0000
0000
0100
0000
0000
2000
0000
0000
3010
0000
0010
0000
0000
0000
,
0011
0000
0000
0000
0010
0000
0000
0200
0000
0000
0310
0000
0010
0000
0000
0000
,
1000
0100
0000
0000
0100
0010
0000
0000
0010
0001
0000
0000
0010
0100
0000
0000
,
1010
0000
0000
0000
1000
0000
0000
0020
0000
0000
0130
0000
0100
0000
0000
0000
,
0101
0000
0000
0000
0001
0000
0000
0200
0000
0000
0310
0000
0010
0000
0000
0000
,
0110
0000
0000
0000
0100
0000
0000
0020
0000
0000
0130
0000
0100
0000
0000
0000
,
0001
0010
0000
0000
0010
0100
0000
0000
0100
0010
0100
0000
0010
0000
0000
0000
,
0110
0000
1000
0000
0001
0010
0100
1000
,
0010
0000
0000
0000
;

//---------------dance-single - ----------------
#NOTES:
     dance-single:
     :
     Medium:
     5:
     0.273,0.253,0.029,0.058,0.000:
0100
0000
1000
0000
0010
0100
0010
0000
,
0001
0000
0100
0000
0010
1000
0010
0000
,
0100
0000
0001
0000
0010
0100
0010
0000
,
0001
0000
1000
0000
0001
0010
0001
0000
,
0100
0100
0100
0000
0001
0001
0001
0000
,
0010
0010
0010
0000
1000
1000
1000
0000
,
0100
0000
0001
0000
0100
0000
0010
1000
,
1000
0000
0010
0000
0100
0000
0001
0001
,
0010
0000
0100
0000
0001
0000
1000
1000
,
0010
0000
0100
0000
0010
0000
0100
0100
,
0010
0000
0001
0000
0010
0000
1000
1000
,
1001
0000
0010
0000
0100
0000
0001
0010
,
0001
0000
0100
0000
0010
0000
1000
0100
,
1000
0000
0010
0000
0100
0000
1000
0010
,
1000
0000
0010
0000
0100
0000
0001
0010
,
0001
0010
0100
0010
,
1001
0000
0010
0000
0010
0100
0100
0000
,
0001
0000
0100
0000
0010
1000
1000
0000
,
0010
0000
0100
0000
0001
0010
0010
0000
,
0200
0302
0023
2030
,
3010
0000
0100
0000
0001
0100
0100
0000
,
0010
0000
1000
0000
0100
1000
1000
0000
,
0010
0000
0100
0000
0001
0100
0100
0000
,
0010
0000
0100
0000
1000
0000
0001
0100
,
0100
0000
0010
0000
0100
0010
0100
0000
,
0010
0000
0000
0000
;

//---------------dance-single - ----------------
#NOTES:
     dance-single:
     :
     Easy:
     2:
     0.207,0.163,0.000,0.072,0.000: // measure 1
0010
0100
0010
0001
,  // measure 2
1000
0010
0100
1000
,  // measure 3
0010
0100
1000
0001
,  // measure 4
0100
0010
0001
0100
,  // measure 5
0010
1000
0010
0001
,  // measure 6
0100
0100
1000
0100
,  // measure 7
0001
0001
0010
0100
,  // measure 8
0010
0010
0001
0100
,  // measure 9
0010
0010
1000
0010
,  // measure 10
0200
0300
0010
0010
,  // measure 11
0002
0003
1000
1000
,  // measure 12
0020
0030
0100
0100
,  // measure 13
0020
0030
0001
0100
,  // measure 14
0010
1000
0010
0100
,  // measure 15
0010
0010
0100
0001
,  // measure 16
2000
3000
0010
0100
,  // measure 17
0001
0010
0100
0100
,  // measure 18
0010
1000
0010
0010
,  // measure 19
0001
0100
0010
0010
,  // measure 20
0100
1000
0001
0100
,  // measure 21
0010
1000
0100
0100
,  // measure 22
0001
0010
1000
1000
,  // measure 23
0010
0100
0001
0001
,  // measure 24
0010
0100
0001
0100
,  // measure 25
0010
0000
0100
0010
,  // measure 26
0100
0000
0000
0000
;
