#TITLE:needy;
#SUBTITLE:;
#ARTIST:Ariana Grande;
#TITLETRANSLIT:;
#SUBTITLETRANSLIT:;
#ARTISTTRANSLIT:;
#CREDIT:;
#BANNER:needy banner.png;
#BACKGROUND:needy bg.png;
#LYRICSPATH:;
#CDTITLE:;
#MUSIC:needy.mp3;
#OFFSET:-11.300;
#SAMPLESTART:54.000;
#SAMPLELENGTH:15.000;
#SELECTABLE:YES;
#BPMS:0.000=87.040,29.750=87.160;
#STOPS:;
#BGCHANGES:;

//---------------dance-single - ----------------
#NOTES:
     dance-single:
     :
     Hard:
     8:
     0.341,0.334,0.038,0.351,0.375:
1000
0100
0001
0100
0010
1000
0010
0100
0010
0000
0000
0000
0000
0000
0000
0000
,
0010
0001
0010
0100
0010
1000
0010
0100
0010
0000
0000
0000
0000
0000
0000
1000
,
0100
0000
0000
0000
0010
0000
0000
0000
0001
0000
0000
0000
0020
0000
0000
0000
0000
0000
0000
0000
0000
0000
0000
0000
0100
0000
0000
0000
0000
0000
0000
0000
0000
0000
0000
0000
0130
0000
0000
0000
0000
0000
0000
0000
0000
0001
0000
0000
,
0010
0000
0000
0000
0100
0000
0000
0000
1000
0000
0000
0000
0200
0000
0000
0000
0000
0000
0000
0000
0000
0000
0000
0000
0010
0000
0000
0000
0000
0000
0010
0000
0000
0020
0000
0000
0300
0000
0000
0000
0000
0000
0030
0000
0000
0000
0000
0000
,
1000
0001
0010
0001
1000
0010
0100
1000
0010
0000
0010
0000
0000
0000
0000
0000
,
0100
0010
0001
0010
1000
0010
0100
0010
1000
0000
1000
0000
0000
0000
0000
0010
,
0100
0000
0000
0000
0001
0000
0000
0000
1000
0000
0000
0000
0020
0000
0000
0000
0000
0000
0000
0000
0000
0000
0000
0000
0001
0000
0000
0000
0000
0000
0000
0000
0000
0000
0000
0000
0031
0000
0000
0000
0000
0000
0000
0000
0000
0100
0000
0000
,
0010
0000
0000
0000
1000
0000
0000
0000
0001
0000
0000
0000
0100
0000
0000
0000
0000
0000
0000
0000
0000
0000
0000
0000
0001
0000
0000
0010
0000
0000
0100
0000
0000
1000
0000
0000
0100
0000
0000
0010
0000
0000
0001
0000
0000
0000
0000
0000
,
0000
1000
0000
0000
0001
0000
0000
0000
0010
0100
0001
0010
1000
0010
0100
0000
,
0000
1000
0000
0000
0001
0000
0000
0000
0010
0001
0100
1000
0010
0100
1000
0000
,
0000
0001
0000
0000
0100
0000
0000
1000
0010
0001
0100
1000
0100
0010
0100
0000
,
0000
0001
0000
0000
0100
0000
0000
0000
0010
1000
0100
1000
0010
1000
0010
0000
,
0000
0001
0000
0000
0010
0000
0000
0000
0100
1000
0100
0010
0001
0010
0100
0000
,
0000
0001
0000
0000
0100
0000
0000
0000
0010
0001
0010
0100
1000
0100
0010
0000
,
0000
0100
0000
0000
0020
0000
0000
0000
0130
0000
0000
0000
0001
0000
1000
0000
,
1000
0000
0000
0000
0000
0000
0000
0000
0000
0000
0000
0000
0010
0000
0000
0000
0000
0000
0000
0000
0000
0000
0000
0000
0100
0000
0000
0000
0001
0000
0000
0000
1000
0000
0000
0000
0010
0000
0000
0000
0000
0000
0000
0000
0000
1000
0000
0000
,
0200
0000
0000
0000
0000
0000
0000
0000
0000
0000
0000
0000
0310
0000
0000
0000
0000
0000
0000
0000
0000
0000
0000
0000
0001
0000
0000
0000
1000
0000
0000
0000
0010
0000
0000
0000
0100
0000
0000
0000
0000
0000
0000
0000
0000
0010
0000
0000
,
0002
0000
0000
0000
0000
0000
0000
0000
0000
0000
0000
0000
0013
0000
0000
0000
0000
0000
0000
0000
0000
0000
0000
0000
0010
0000
0000
0000
0100
0000
0000
0000
1000
0000
0000
0000
0100
0000
0000
0000
0000
0000
0000
0000
0000
0010
0000
0000
,
0100
0012
0023
0130
,
2100
0000
0000
0000
0000
0000
0000
0000
0000
0000
0000
0000
3020
0000
0000
0000
0000
0000
0000
0000
0000
0000
0000
0000
0130
0000
0000
0000
1000
0000
0000
0000
0100
0000
0000
0000
1000
0000
0000
0000
0000
0000
0000
0000
0000
0010
0000
0000
,
0002
0000
0000
0000
0000
0000
0000
0000
0000
0000
0000
0000
0013
0000
0000
0000
0000
0000
0000
0000
0000
0000
0000
0000
0100
0000
0000
0000
0001
0000
0000
0000
1000
0000
0000
0000
0010
0000
0000
0000
0000
0000
0000
0000
0000
0100
0000
0000
,
2000
0000
0000
0000
0000
0000
0000
0000
0000
0000
0000
0000
3010
0000
0000
0000
0000
0000
0000
0000
0000
0000
0000
0000
0001
0000
0000
0000
0010
0000
0000
0000
0100
0000
0000
0000
1000
0000
0000
0000
0000
0000
0000
0000
0000
0100
0000
0000
,
0010
0210
0302
0013
,
2001
0000
0000
0000
0000
0000
0000
0000
0000
0000
0000
0000
3010
0000
0000
0000
0000
0000
0000
0000
0000
0000
0000
0000
0001
0000
0000
0000
0010
0000
0000
0000
1000
0000
0000
0000
0010
0000
0000
0000
0000
0000
0000
0000
0000
0100
0000
0000
,
0020
0000
0200
0030
,
0002
0000
0000
0000
0300
0000
0000
0000
2000
0003
0000
0000
0200
0000
0000
3000
,
0020
0300
0000
0000
0000
0000
0000
0000
2030
0000
0000
0000
0000
0000
3000
0000
,
0002
0000
0000
0000
0020
0000
0003
0000
0200
0000
0030
0000
0002
0000
0000
0300
,
2000
0003
0000
0000
0000
0000
0000
0000
0020
0000
3000
0000
0000
0000
0000
0000
,
0200
0030
0000
0000
0000
0000
0300
0000
0002
0000
0000
0000
2003
0000
0000
0000
,
3020
0000
0000
0000
0000
0000
0000
0000
0200
0030
0000
0000
0000
0000
0000
0000
,
0320
2030
3020
0000
,
0030
0000
0000
0000
;

//---------------dance-single - ----------------
#NOTES:
     dance-single:
     :
     Medium:
     5:
     0.258,0.258,0.066,0.408,0.000:
0001
0010
0100
1000
0100
0000
0000
0000
,
0010
0100
0001
0100
0010
0000
0000
0000
,
0010
0100
2000
0000
0000
3000
0000
0000
,
0100
0010
0002
0000
0000
0000
0103
0000
,
0010
0100
0001
0010
1000
0000
0000
0000
,
0010
0100
1000
0100
0010
0000
0000
0000
,
0010
0100
0002
0000
0000
0000
0003
0000
,
0010
0100
0010
0000
0010
0100
1000
0100
,
0010
0000
1010
0000
0100
0001
0010
0100
,
0010
0000
0101
0000
0010
0100
1000
0100
,
0001
0000
0110
0000
0001
1000
0010
0100
,
0001
0000
1100
0000
0010
0100
1000
0100
,
0010
0000
0110
0000
0010
0001
0010
1000
,
0100
0000
1010
0000
0001
0100
1000
0100
,
0001
0000
0110
0000
0020
0000
0030
0100
,
0100
0000
0010
0000
0100
0010
0001
0000
,
2000
0000
3100
0000
0010
0100
0010
0000
,
0200
0000
0310
0000
0001
0010
0100
0000
,
0020
0230
0302
2003
,
3200
0000
2300
0000
3010
0010
0010
0000
,
0200
0000
0301
0000
0010
1000
0010
0000
,
0200
0000
1300
0000
0010
0001
0010
0000
,
0002
0023
0230
2300
,
3200
0320
0032
0203
,
0320
0000
0230
0000
,
0302
0000
2003
3200
,
0320
0000
0230
0000
,
0302
0023
0230
2300
,
3020
0000
0032
0000
,
0023
0000
2030
3200
,
2300
0000
3020
0000
,
0230
0302
0203
0000
,
0300
0000
0000
0000
;

//---------------dance-single - ----------------
#NOTES:
     dance-single:
     :
     Easy:
     2:
     0.151,0.152,0.038,0.028,0.000: // measure 1
0010
0100
0010
0000
,  // measure 2
1000
0100
0010
0000
,  // measure 3
0100
0002
0003
0000
,  // measure 4
0010
2000
3000
0100
,  // measure 5
0001
0100
0010
0000
,  // measure 6
0001
1000
0010
0000
,  // measure 7
0001
0200
0300
0000
,  // measure 8
0010
0100
0001
0001
,  // measure 9
0010
0100
0010
0010
,  // measure 10
1000
0010
0001
0001
,  // measure 11
0100
0010
1000
1000
,  // measure 12
0100
1000
0010
0010
,  // measure 13
0100
0001
0100
0100
,  // measure 14
0010
0100
0001
0001
,  // measure 15
0010
0001
0100
0100
,  // measure 16
0010
0000
0010
0010
,  // measure 17
0110
0000
1000
1000
,  // measure 18
0011
0000
0100
0100
,  // measure 19
0010
1000
1000
0010
,  // measure 20
0100
0001
0100
0010
,  // measure 21
1001
0000
0100
0100
,  // measure 22
0110
0000
0001
0001
,  // measure 23
0010
1000
0010
0100
,  // measure 24
0010
0100
0001
0100
,  // measure 25
0010
0000
1000
0000
,  // measure 26
0010
0000
0001
0100
,  // measure 27
0010
0000
0001
0000
,  // measure 28
0100
1000
0010
0100
,  // measure 29
0010
0000
0100
0000
,  // measure 30
0001
0000
0100
1000
,  // measure 31
0010
0000
0100
0000
,  // measure 32
0001
0010
0100
0000
,  // measure 33
0100
0000
0000
0000
;
