#TITLE:idontwannabeyouanymore;
#SUBTITLE:;
#ARTIST:Billie Eilish;
#TITLETRANSLIT:;
#SUBTITLETRANSLIT:;
#ARTISTTRANSLIT:;
#CREDIT:;
#BANNER:idontwannabeyouanymore banner.png;
#BACKGROUND:idontwannabeyouanymore bg.png;
#LYRICSPATH:;
#CDTITLE:;
#MUSIC:idontwannabeyouanymore.mp3;
#OFFSET:-8.900;
#SAMPLESTART:50.800;
#SAMPLELENGTH:15.000;
#SELECTABLE:YES;
#BPMS:0.000=56.720;
#STOPS:;
#BGCHANGES:;

//---------------dance-single - ----------------
#NOTES:
     dance-single:
     :
     Hard:
     5:
     0.217,0.242,0.084,0.134,0.298:
1000
0010
0100
0001
,
0010
0100
0110
0000
,
2000
0000
0000
3000
0010
1000
0010
0000
0000
0000
0100
0001
,
0200
0000
0000
0300
0010
0001
0010
0000
0000
0000
0010
1000
,
0020
0000
0000
0030
1000
0001
1000
0000
0000
0000
0010
0100
,
0000
0000
1001
0000
0000
0000
0010
0000
0000
0010
0000
0000
,
0210
0000
0000
1300
0001
1000
0001
0000
0000
0010
0100
0001
,
0200
0000
0000
0310
1000
0010
1000
0000
0000
0100
0010
0001
,
0010
0000
0000
0100
1000
0100
0010
0000
0000
0010
0100
1000
,
0000
0000
0000
0101
0000
0000
0010
0000
0000
0010
0000
1000
,
1000
0000
0100
0010
0001
0010
0100
1000
0000
0110
0001
0010
,
0100
1000
0010
0100
1000
0100
0010
0001
0000
0010
0100
0001
,
0100
0000
0010
0100
1000
0010
0001
0000
0010
0100
1000
0010
,
0200
0000
0000
0001
0000
0000
1000
0000
0000
0301
0010
0100
,
1000
0000
0010
0100
0001
0100
0010
1000
0010
0100
0010
1000
,
0010
0000
0001
0010
0100
1000
0010
0100
1000
0010
0100
1000
,
0001
0000
0100
0010
1000
0001
0100
0000
0100
0010
0000
0010
,
0200
0002
0310
0100
,
1003
0100
0001
0100
,
0110
0000
1000
1000
0000
0000
0010
0000
0001
0001
0000
0000
,
0011
0010
0110
0100
,
1010
0000
0100
0100
0000
0000
0010
0000
0100
0100
0000
0000
,
0002
0020
2003
0230
,
3020
0000
0000
0000
0002
0000
0300
0000
0000
0000
0000
0030
0000
0000
0000
0000
0000
0000
0000
0000
0003
0000
0000
0000
,
0220
0000
0000
0300
,
0030
0000
0000
0000
;

//---------------dance-single - ----------------
#NOTES:
     dance-single:
     :
     Challenge:
     8:
     0.292,0.263,0.118,0.101,0.525:
1000
0000
0000
0000
0000
0000
0000
0000
0000
0000
0000
0000
0000
0000
0000
0000
0000
0000
0000
0000
0000
0000
0000
0000
0000
0000
0000
0000
0000
0000
0000
0000
0100
0000
0000
0000
0000
0000
0000
0000
0000
0000
0000
0000
0000
0000
0000
0000
0110
0000
0000
0000
0000
0000
0000
0000
0000
0000
0000
0000
0000
0000
0000
0000
0000
0000
0000
0000
0000
0000
0000
0000
0000
0000
0000
0000
0000
0000
0000
0000
0001
0000
0000
0000
0000
0000
0000
0000
0000
0000
0000
0000
0000
0000
0000
0000
0011
0000
0000
0000
0000
0000
0000
0000
0000
0000
0000
0000
0000
0000
0000
0000
0000
0000
0000
0000
0000
0000
0000
0000
0000
0000
0000
0000
0000
0000
0000
0000
0010
0000
0000
0000
0000
0000
0000
0000
0000
0000
0000
0000
0000
0000
0000
0000
0110
0000
0000
0000
0000
0000
0000
0000
0000
0000
0000
0000
1000
0000
0000
0000
0000
0000
0001
0000
0000
0000
0000
0000
0000
0000
0000
0000
0000
0000
1000
0000
0000
0000
0000
0000
0000
0000
0000
0000
0000
0000
0000
0000
0000
0000
0000
0000
,
0000
0000
0000
0000
0000
1001
0000
0101
0000
0000
0011
0000
0000
0000
0000
0000
0010
0000
0000
0000
0000
0000
0000
0000
0010
0000
0000
0000
0000
0000
0000
0000
,
0101
0000
0000
0000
0000
0010
0100
0000
0001
0000
0100
0000
0010
0000
0000
0000
0000
1000
0100
0000
0010
0000
0100
0000
,
0001
0000
0000
0000
0000
0010
0100
0000
0001
0000
0100
0010
0001
0000
0000
0000
0000
0000
0100
0000
1000
0000
0100
0000
,
0010
0000
0000
0000
0000
0100
0010
0000
1000
0000
0001
0000
0100
0000
0000
0000
0010
0000
0001
0010
1000
0000
0010
0000
,
0100
0000
0011
0100
1000
0100
0010
0000
0000
0010
0010
0010
,
0110
0000
0000
0000
0000
0000
1001
0000
0100
0000
1000
0000
0100
0000
0000
0000
0000
0001
0010
0000
0100
0000
0010
0000
,
1000
0000
0000
0000
0000
0100
1000
0000
0010
0000
0100
0000
0001
0000
0000
0000
0010
0100
1000
0000
0100
0000
0010
0000
,
0001
0000
0000
0000
0000
0010
0001
0000
0010
0000
0100
0000
1000
0000
0000
0000
0000
0100
0010
0000
1000
0000
0100
0000
,
0001
0000
0000
1001
0000
0000
0001
0000
0000
0010
0100
1000
,
0100
0000
0000
0000
0100
0000
0010
0000
0001
0000
0010
0000
0100
0000
0010
0000
0000
1000
1001
0000
0010
0000
0100
0000
,
0001
0000
0100
0000
0010
0000
0000
0000
0010
0000
0100
0000
1000
0000
0100
0000
0000
0010
0110
0000
0001
0000
0010
0000
,
0100
0000
0010
0100
1000
0100
0010
0000
0100
1000
0010
0100
,
0001
0000
0000
0000
0010
0000
0100
0000
1000
0000
0010
0000
0001
0000
0000
0000
0010
0000
0100
0000
0010
0000
1000
0100
,
0010
0000
0000
0000
0010
0000
0100
0000
0001
0000
0100
0000
0010
0000
1000
0000
0100
0010
0001
0000
0100
0000
1000
0000
,
0010
0000
0000
0000
0100
0000
1000
0000
0010
0000
0100
0000
0001
0000
0010
0000
0100
0000
1000
0000
0010
0000
0100
1000
,
0100
0000
0010
0100
0001
0100
0010
0000
1000
0100
0001
0100
,
1000
0000
0000
0000
0010
0000
0100
0000
0001
0000
0100
0000
0010
0000
1000
0000
0100
0000
0001
0010
0100
1000
0100
0010
,
0002
0000
0200
0000
0023
0000
2030
3000
,
0310
0100
0010
0100
0000
0000
0001
1000
0100
0010
0000
0000
,
0200
0020
2030
3020
,
0331
0010
0100
1000
0000
0000
0010
0100
0001
0100
0010
1000
,
0100
0001
0100
0100
,
0020
0000
0000
0000
0200
0000
0000
0000
0000
0000
0000
0000
0000
0000
0000
0000
0300
0000
0000
0000
1000
0030
1000
0000
,
2002
0000
0000
0000
0000
3000
0000
0000
,
0003
0000
0000
0000
;

//---------------dance-single - ----------------
#NOTES:
     dance-single:
     :
     Medium:
     4:
     0.172,0.158,0.059,0.151,0.143:
1000
0100
0010
0001
,
0010
0100
0020
0000
,
0130
0000
0000
0100
0000
0000
0101
0000
0000
0010
0000
1000
,
1100
0000
0000
0010
0000
0000
0100
0000
0000
0010
0000
0001
,
0101
0000
0000
0010
0000
0000
0100
0000
0000
0010
0000
0100
,
1010
0100
0001
0100
,
0020
0000
0000
0031
0000
0000
0100
0000
0000
0010
0100
0010
,
0200
0000
0000
1300
0000
0000
0010
0000
0000
0100
0000
0001
,
0021
0000
0000
0130
0000
0000
0010
0000
0000
1000
0100
1000
,
0100
0000
0000
0010
0000
0000
0100
0000
0000
0001
0000
0010
,
0010
0000
0100
0000
0010
0000
0100
0100
0000
0010
0000
0000
,
1000
0000
0001
0000
1000
0000
0001
0001
0000
0010
0000
0000
,
0100
0000
0010
0000
0100
0000
0010
0000
1000
0000
0000
0100
,
0110
0000
0000
1000
0000
0000
0001
0000
0000
0100
0000
0010
,
0010
0000
0100
0000
0001
0000
0100
0000
0000
0010
0000
1000
,
1000
0000
0100
0000
0010
0000
0001
0000
0000
0100
0000
0010
,
0010
0000
0001
0000
0010
0000
0100
0000
0010
0010
0000
0100
,
0200
2300
3200
0310
,
0002
2003
3002
2003
,
3010
0000
0010
0000
0000
0000
0100
0000
0000
0001
0000
0000
,
0020
0230
0320
0230
,
0310
0000
0010
0000
0000
0000
1000
0000
0000
0010
0000
0000
,
1000
0100
0010
0001
,
0100
0000
0200
0000
0000
0000
0000
0000
0000
0300
0000
0010
,
0220
0000
0000
0000
,
0330
0000
0000
0000
;

//---------------dance-single - ----------------
#NOTES:
     dance-single:
     :
     Easy:
     2:
     0.090,0.095,0.042,0.042,0.000: // measure 1
0100
0100
0010
0010
,  // measure 2
0001
0001
1000
0000
,  // measure 3
0100
0000
0100
0000
,  // measure 4
1000
0000
1000
0000
,  // measure 5
0010
0000
0010
0000
,  // measure 6
0001
0000
0001
0000
,  // measure 7
0110
0000
1000
0000
,  // measure 8
1001
0000
0010
0000
,  // measure 9
1100
0000
0010
0000
,  // measure 10
0011
0000
0100
0000
,  // measure 11
0010
0100
0010
0000
,  // measure 12
1000
0100
1000
0000
,  // measure 13
0001
0100
0001
0000
,  // measure 14
0020
0000
0030
0000
,  // measure 15
0100
0010
0100
0000
,  // measure 16
0001
1000
0001
0000
,  // measure 17
0010
0100
1000
0001
,  // measure 18
0010
0100
0001
0010
,  // measure 19
1000
1000
1000
0100
,  // measure 20
0020
0000
0030
1000
,  // measure 21
0001
0001
0001
0010
,  // measure 22
0200
0000
0300
0001
,  // measure 23
0010
0010
0010
0010
,  // measure 24
0100
0000
0000
0000
,  // measure 25
0220
0000
0000
0000
,  // measure 26
0330
0000
0000
0000
;
