#TITLE:You're The Best;
#SUBTITLE:;
#ARTIST:MAMAMOO;
#TITLETRANSLIT:;
#SUBTITLETRANSLIT:;
#ARTISTTRANSLIT:;
#CREDIT:;
#BANNER:You're The Best banner.png;
#BACKGROUND:You're The Best bg.png;
#LYRICSPATH:;
#CDTITLE:;
#MUSIC:You're The Best.mp3;
#OFFSET:-6.200;
#SAMPLESTART:57.340;
#SAMPLELENGTH:15.000;
#SELECTABLE:YES;
#BPMS:0.000=122.040,168.000=106.160,172.000=63.220,176.000=121.200,180.000=121.900;
#STOPS:;
#BGCHANGES:;

//---------------dance-single - ----------------
#NOTES:
     dance-single:
     :
     Hard:
     7:
     0.445,0.399,0.170,0.108,0.027:
1010
0000
0100
0000
0001
0001
0000
0100
,
0110
0000
1000
0000
0010
0010
0000
1000
,
1000
0000
0001
0010
0100
1000
0100
0010
,
0000
1001
0000
0010
0100
0000
0010
0001
,
0110
0000
0010
0000
0100
0100
0000
1000
,
0110
0000
0010
0000
0001
0100
0000
0010
,
0010
0000
1000
0100
0001
0010
1000
0100
,
0010
0000
0010
0000
0000
0100
0000
0000
0010
0000
0000
0100
0000
0000
0010
0000
,
1000
0001
0100
0010
0100
0001
1000
0010
,
0000
0001
1000
0100
1000
0010
0100
0001
,
0110
0000
0000
1000
0001
0010
1000
0100
,
0001
0000
0000
0010
0010
1000
0001
0000
,
0001
0010
0100
1000
0001
0010
0100
1000
,
0000
1000
0100
0010
0001
1000
0100
0010
,
0101
0000
0000
0010
1000
0100
0001
1000
,
0010
0000
0010
1000
0001
1000
0010
0000
,
0001
0001
0010
1000
0100
0010
0000
0100
,
0010
1000
0001
0010
0000
0100
1000
0100
,
0000
0010
0001
0000
0100
0010
1000
0100
,
0000
0001
0010
0100
1000
0100
0010
0001
,
0000
0010
0100
1000
0100
0010
0000
0100
,
0010
0001
0010
0100
0000
0000
0110
1000
,
1000
0000
0100
0001
0100
0001
0000
0001
,
0001
0000
0010
1000
0010
1000
0000
0100
,
0100
0000
0010
0001
0010
0100
1000
0101
,
0000
1010
0000
0110
0000
0001
1000
0000
,
1001
0000
0010
0100
0010
0000
1000
0100
,
0010
0001
0100
0020
0000
0001
0001
0000
,
1030
0000
0010
0001
0010
0100
1000
0200
,
0000
0000
0310
1000
0100
0001
0010
0000
,
1001
0000
0100
0010
0100
0000
0001
0010
,
1000
0100
0001
0020
0000
0000
0100
0000
,
0130
0000
0001
1000
0001
0000
0100
0010
,
0100
1000
0001
0010
0000
1000
1000
0000
,
0110
0000
1000
0001
1000
0000
0001
0010
,
1000
0100
0001
2000
0000
0100
0100
0000
,
3010
0000
0001
1000
0010
0100
0001
0020
,
0000
0000
1030
0001
0100
0010
1000
0000
,
0101
0000
0010
1000
0010
0000
0100
0001
,
1000
0010
0100
0002
0000
0000
0010
0000
,
0013
0000
0100
1000
1000
0000
0010
1000
,
0100
0001
0100
0010
0000
0100
0100
0000
,
0002
0000
0000
0000
0000
0010
0000
0000
0000
0000
0010
0000
0000
0000
0000
0010
0000
0000
0000
0000
0000
0000
0100
0000
0000
0000
0100
0000
0003
0000
0000
0000
,
0110
0000
1000
0010
0002
0000
0000
0003
,
0110
0000
0001
1000
0001
0000
0010
0100
,
0001
1000
0010
0200
0000
1000
1000
0000
,
0301
0000
0010
1000
0010
0001
0100
0020
,
0000
0000
0130
1000
0100
0001
0010
0000
,
0110
0000
1000
0001
0100
0000
0001
1000
,
0010
0100
0001
0020
0000
1000
1000
0030
,
0110
0000
0001
0010
0100
0000
0010
0100
,
1000
0100
0010
0100
0000
0010
0001
0000
,
1001
0000
0010
0100
0010
0000
1000
0100
,
0001
0010
1000
0200
0000
0001
0001
0000
,
0301
0000
0010
1000
0100
0001
0010
2000
,
0000
0000
3100
0001
0100
0001
0010
0000
,
1001
0000
0010
0100
1000
0000
0001
0100
,
0010
1000
0100
0002
0000
0010
0010
0000
,
0103
0000
1000
0001
0010
0000
0100
0001
,
1000
0010
0100
0001
0000
0010
0010
0100
,
0100
0000
0001
0010
0100
1001
0000
0000
;

//---------------dance-single - ----------------
#NOTES:
     dance-single:
     :
     Medium:
     6:
     0.341,0.305,0.039,0.046,0.000:
0010
0000
0100
0000
0001
0001
0000
0010
,
0010
0000
1000
0000
0100
0100
0000
0010
,
0010
0000
1000
0000
0100
0000
0001
0100
,
0000
0010
0000
1000
0000
0010
0000
0100
,
0100
0000
0001
0000
1000
1000
0000
0010
,
0010
0000
0100
0000
1000
1000
0000
0001
,
0001
0000
0100
0000
0010
0000
1000
0001
,
0010
0000
0100
0000
0010
0100
0010
0000
,
1000
0000
0100
0000
0001
0010
0001
0000
,
0100
0000
0010
0000
1000
0000
0010
0100
,
0020
0000
0030
0000
0100
0000
0001
0010
,
0002
0003
1000
1000
,
0010
0000
0100
0000
0001
0010
0001
0000
,
0100
0000
0010
0000
1000
0000
0001
0100
,
0002
0000
0003
0000
0100
0000
0010
1000
,
0020
0030
0100
0100
,
0010
0000
1000
0000
0001
0010
0000
0010
,
0100
0000
0100
1000
0000
0100
0000
0010
,
0000
0100
0010
0000
0001
0000
1000
0010
,
0000
0100
0010
0000
0010
0000
0001
0010
,
0000
1000
0100
0000
0010
0100
0000
0001
,
0010
0000
1000
0010
0000
0100
0100
0000
,
0010
0000
1000
0000
0001
0001
0000
0100
,
0100
0000
0010
0000
1000
1000
0000
0010
,
0010
0000
0100
0000
0001
0000
1000
0010
,
0000
0100
0000
0001
0000
0110
0110
0000
,
1001
0000
0010
0100
0010
0000
1000
0000
,
0001
0000
1000
0010
0000
0010
1000
0000
,
0010
0000
0100
0000
0001
0010
0001
0000
,
0100
0000
0010
0000
1000
0001
1000
0000
,
0010
0000
1000
0100
1000
0000
0010
0000
,
0100
0000
0001
0010
0000
0010
0100
0000
,
0010
0000
1000
0001
1000
0000
0010
0000
,
0100
0000
1000
0010
0000
0010
1000
0000
,
0010
0000
0100
0010
0100
0000
0010
0000
,
1000
0000
0100
0010
0000
0010
0100
0000
,
0001
0000
0010
0000
1000
0100
1000
0000
,
0010
0000
0100
0000
0001
0010
0001
0000
,
0100
0000
0010
0001
0010
0000
0100
0000
,
0010
0000
1000
0100
0000
0100
1000
0000
,
0010
0000
0100
0010
0100
0000
0010
0000
,
0001
0000
0010
0100
0000
0100
0010
0000
,
0200
0010
0010
0300
,
1001
0000
1000
0100
0020
0000
0000
0030
,
1100
0000
0010
0100
0010
0000
0001
0000
,
0100
0000
0010
0001
0000
0001
0010
0000
,
0100
0000
0010
0000
1000
0100
1000
0000
,
0010
0000
0100
0000
0001
0010
0001
0000
,
0010
0000
0001
0010
0001
0000
0010
0000
,
0100
0000
1000
0010
0000
0010
1000
0000
,
0100
0000
0010
0100
0010
0000
1000
0000
,
0001
0000
1000
0010
0000
0010
0100
0010
,
0100
0000
0001
0010
0001
0000
0100
0010
,
0100
0000
1000
0001
0000
0001
1000
0000
,
0010
0000
0100
0000
0010
0100
0010
0000
,
0100
0000
1000
0000
0010
0100
0010
0000
,
0100
0000
0001
0010
0001
0000
0100
0000
,
0010
0000
1000
0010
0000
0010
0100
0000
,
0010
0000
1000
0010
1000
0000
0010
0100
,
0010
0000
1000
0010
0000
0010
0000
0010
,
0100
0000
0010
0010
0100
0010
0000
0000
;

//---------------dance-single - ----------------
#NOTES:
     dance-single:
     :
     Easy:
     4:
     0.269,0.234,0.015,0.186,0.000: // measure 1
0010
0100
0010
0010
,  // measure 2
0001
1000
0001
0001
,  // measure 3
0100
1000
0100
0100
,  // measure 4
0010
1000
0010
0100
,  // measure 5
0010
0001
1000
1000
,  // measure 6
0010
1000
0100
0100
,  // measure 7
0010
0100
0001
0100
,  // measure 8
0010
0010
0010
0110
,  // measure 9
1000
0001
0100
0100
,  // measure 10
1000
0010
0100
0001
,  // measure 11
0200
0300
0001
0010
,  // measure 12
0002
0003
0100
0100
,  // measure 13
0010
1000
0100
1000
,  // measure 14
0010
0100
0001
0100
,  // measure 15
0020
0030
1000
1000
,  // measure 16
0020
0030
0100
0100
,  // measure 17
0001
0100
0010
1000
,  // measure 18
0010
0200
0300
0010
,  // measure 19
0100
0100
0001
0010
,  // measure 20
1000
0100
1000
0010
,  // measure 21
0100
0010
0100
0001
,  // measure 22
1000
0020
0030
0100
,  // measure 23
0010
1000
0010
0010
,  // measure 24
0100
0001
0100
0100
,  // measure 25
0001
0010
0100
1000
,  // measure 26
0100
0010
0100
0010
,  // measure 27
1000
1000
0100
0100
,  // measure 28
0001
0100
0010
1000
,  // measure 29
0020
0030
0100
0100
,  // measure 30
0002
0003
1000
1000
,  // measure 31
0010
0100
0001
0100
,  // measure 32
0010
0001
0200
0300
,  // measure 33
0010
0100
0010
1000
,  // measure 34
0010
0100
0002
0003
,  // measure 35
1000
0010
0100
0001
,  // measure 36
0100
0010
0001
1000
,  // measure 37
0020
0030
0100
0100
,  // measure 38
0002
0003
0010
0010
,  // measure 39
0100
1000
0100
0010
,  // measure 40
0100
0001
0200
0300
,  // measure 41
0010
0010
0100
0010
,  // measure 42
1000
0010
0200
0300
,  // measure 43
0020
0000
0000
0030
,  // measure 44
0100
0000
0000
0010
0000
0000
0200
0000
0000
0000
0300
0000
,  // measure 45
0010
0100
0001
0010
,  // measure 46
1000
0100
0010
0100
,  // measure 47
2000
3000
0010
0010
,  // measure 48
0200
0300
0001
0001
,  // measure 49
0010
0100
0010
1000
,  // measure 50
0100
0001
0200
0300
,  // measure 51
0010
1000
0100
1000
,  // measure 52
0100
0010
0002
0003
,  // measure 53
0100
0100
0010
0010
,  // measure 54
1000
0010
0100
0001
,  // measure 55
0200
0300
0010
0010
,  // measure 56
0002
0003
0100
0100
,  // measure 57
0010
1000
0100
1000
,  // measure 58
0010
0100
0002
0003
,  // measure 59
0010
0100
0010
0001
,  // measure 60
0100
0010
0200
0300
,  // measure 61
0010
0010
0110
0000
;
