#TITLE:Yes No Maybe;
#SUBTITLE:;
#ARTIST:SUZY;
#TITLETRANSLIT:;
#SUBTITLETRANSLIT:;
#ARTISTTRANSLIT:;
#CREDIT:;
#BANNER:Yes No Maybe banner.png;
#BACKGROUND:Yes No Maybe bg.png;
#LYRICSPATH:;
#CDTITLE:cdtitle.png;
#MUSIC:Yes No Maybe.mp3;
#OFFSET:-6.340;
#SAMPLESTART:35.440;
#SAMPLELENGTH:15.000;
#SELECTABLE:YES;
#BPMS:0.000=164.980;
#STOPS:;
#BGCHANGES:;

//---------------dance-single - ----------------
#NOTES:
     dance-single:
     :
     Hard:
     7:
     0.519,0.498,0.240,0.198,0.000:
0110
0000
0001
1000
0000
0100
0010
0000
,
1000
0000
0001
0100
0000
0100
0010
0000
,
1000
0000
0001
0100
0000
0010
1000
0000
,
0010
0100
0020
0000
0000
0000
0000
0030
,
0100
0000
0001
0100
0000
0200
0000
0300
,
0010
0000
1000
0001
0000
0002
0000
0003
,
0100
0000
1000
0010
0000
0100
0000
0001
,
0000
0100
0000
0020
0000
0000
0000
0000
,
0130
0000
0001
1000
0000
2000
0000
3000
,
0010
0000
0100
0001
0000
0002
0000
0003
,
0010
0000
0100
0001
0000
1000
0000
0010
,
0000
0100
0000
0020
0000
0000
0100
0030
,
0100
1000
0001
0100
0000
0200
0000
0310
,
0001
0010
0100
1000
0000
0020
0000
1030
,
0100
0001
0100
0010
0000
1000
0000
0010
,
0100
0010
1000
0010
0000
0001
0010
0100
,
1001
0000
0000
0010
0000
0000
0100
0000
,
0011
0000
0000
0010
0000
0000
1000
0000
,
0110
0000
0000
1000
0000
0000
0010
0000
,
1000
0100
0010
0001
0010
0100
1000
0100
,
0011
0000
0010
0100
0000
1000
0010
0000
,
0100
1000
0000
0001
0100
0010
1000
0010
,
0100
0000
0001
1000
0000
0010
0100
0000
,
0001
1000
0000
0010
0100
0001
0010
0001
,
0010
0000
0100
1000
0100
0010
0100
0020
,
0000
1000
1030
0000
0100
1000
0010
0100
,
0001
0000
0010
0100
0000
0010
0100
0020
,
0000
0031
0001
0000
0010
0100
1000
0100
,
1010
0000
0100
0001
0000
0010
0000
0001
,
0000
0100
0000
0010
0001
0010
0100
0010
,
1001
0000
0010
1000
0000
0001
0000
0100
,
0000
0010
0000
0100
0100
0010
1000
0010
,
0100
0000
0001
0010
0100
0010
0100
1000
,
0100
0000
0010
0000
0100
0001
0010
0001
,
1000
0000
0010
1000
0100
1000
0010
0100
,
0010
0020
0000
0130
,
0001
0010
0100
1000
0000
0010
0000
0100
,
0010
0100
0002
0000
0003
0000
0010
0000
,
1010
0000
0100
0011
0000
0010
1010
0000
,
0100
0011
0000
0010
0110
0000
1000
0000
,
0001
1000
0100
0010
0000
0010
0000
0100
,
0001
0010
2000
0000
0000
0000
3010
0000
,
0010
0000
1000
1100
0000
0001
0101
0000
,
1000
0110
0000
0010
1001
0000
0010
0000
,
0110
0000
0000
0000
;

//---------------dance-single - ----------------
#NOTES:
     dance-single:
     :
     Medium:
     4:
     0.354,0.373,0.255,0.170,0.000:
1010
0000
0000
0100
0000
0000
0001
0000
,
0110
0000
0000
0001
0000
0000
0100
0000
,
0011
0000
0000
1000
0000
0000
0001
0000
,
0100
0200
0000
0000
,
0310
0000
0000
1000
0000
1000
0000
0000
,
0010
0000
0000
0100
0000
0100
0000
0000
,
0010
0000
0000
0001
0000
0001
0000
0010
,
0000
0100
0000
2000
0000
0000
3000
0000
,
0010
0000
0000
1000
0000
1000
0000
0000
,
0100
0000
0000
0010
0000
0010
0000
0000
,
0001
0000
0000
1000
0000
1000
0000
0010
,
0000
0100
0000
0020
0000
0000
0000
0030
,
0100
0000
1000
0001
0000
0001
0000
0000
,
0010
0000
0100
0010
0000
0010
0000
0000
,
1000
0000
0001
0100
0000
0100
0000
1000
,
0000
0010
0000
0200
0000
0000
0310
0000
,
0001
0000
0000
0010
0000
0000
0100
0000
,
1000
0000
0000
0100
0000
0000
0010
0000
,
0001
0000
0000
0010
0000
0000
0100
0000
,
0000
1000
0000
0000
0100
0000
0010
0000
,
0101
0000
0000
0010
0000
0000
1000
0000
,
0000
0101
0000
0000
0010
0000
0010
0000
,
1010
0000
0000
0100
0000
0000
0001
0000
,
0000
0110
0000
0000
0001
0000
0001
0000
,
0010
0000
0100
1000
0000
0100
0000
0020
,
0000
0000
0130
0001
,
0100
0000
0010
1000
0000
0100
0000
2000
,
0000
0000
3010
0100
,
0001
0000
0100
0010
0000
0001
0000
0010
,
0000
0200
0000
0000
0000
0300
0010
0000
,
0010
0000
1000
0000
0001
0100
0000
1000
,
0000
0020
0000
0000
0000
0030
0001
0000
,
0001
0000
0010
1000
0000
0010
0000
0200
,
0000
0300
0000
0000
0010
0000
0001
0000
,
0100
0000
0001
1000
0000
0001
0000
2000
,
0000
3000
0010
0010
,
0100
0000
0001
1000
0000
1000
0000
0010
,
0100
0010
0200
0000
0000
0000
0300
0000
,
0011
0000
0000
0110
0000
0000
1001
0000
,
0000
1100
0000
0000
0110
0000
0010
0000
,
1000
0000
0001
0100
0000
0100
0000
0010
,
1000
0010
2000
0000
0000
0000
3000
0000
,
0110
0000
0000
1100
0000
0000
0011
0000
,
0000
0110
0000
0000
1001
0000
0000
0000
,
0110
0000
0000
0000
;

//---------------dance-single - ----------------
#NOTES:
     dance-single:
     :
     Easy:
     3:
     0.283,0.280,0.014,0.127,0.000: // measure 1
1000
0000
0100
0000
,  // measure 2
0001
0000
0100
0000
,  // measure 3
0010
0000
1000
0000
,  // measure 4
0020
0000
0000
0030
,  // measure 5
0100
0000
1000
0010
,  // measure 6
0010
0000
0100
0001
,  // measure 7
0100
0000
0010
0100
,  // measure 8
1000
0100
0020
0030
,  // measure 9
0001
0000
0010
0100
,  // measure 10
0010
0000
1000
0010
,  // measure 11
1000
0000
0001
0001
,  // measure 12
0010
0100
2000
3000
,  // measure 13
0010
0100
0010
0010
,  // measure 14
1000
0001
0100
0100
,  // measure 15
0001
1000
0010
0100
,  // measure 16
1000
0100
0010
0100
,  // measure 17
0010
0000
0000
0000
,  // measure 18
0001
0000
0000
0000
,  // measure 19
1000
0000
0000
0000
,  // measure 20
0100
0000
0000
0000
,  // measure 21
0010
1000
0010
0100
,  // measure 22
0001
0010
0001
0100
,  // measure 23
0010
1000
0010
0001
,  // measure 24
0100
0010
1000
0010
,  // measure 25
0100
0100
0001
0100
,  // measure 26
0020
0030
0100
0100
,  // measure 27
1000
0001
0100
0010
,  // measure 28
2000
3000
0010
0010
,  // measure 29
0100
0000
0000
0001
0000
1000
0000
0001
,  // measure 30
0000
1000
0000
0000
0010
0000
0010
0000
,  // measure 31
0100
0000
0000
1000
0000
0001
0000
1000
,  // measure 32
0000
0001
0000
0000
0010
0000
1000
0000
,  // measure 33
0100
0100
0001
0100
,  // measure 34
0020
0030
0000
0100
,  // measure 35
0001
0100
0010
1000
,  // measure 36
0002
0003
0000
0010
,  // measure 37
0100
0100
0010
0100
,  // measure 38
0001
0200
0300
0010
,  // measure 39
1000
0000
1000
0000
,  // measure 40
0001
0000
0001
0000
,  // measure 41
0100
1000
0100
0100
,  // measure 42
0010
2000
3000
0001
,  // measure 43
0010
0000
0100
0000
,  // measure 44
0010
0000
0100
0000
,  // measure 45
1001
0000
0000
0000
;
