#TITLE:Wind Flower;
#SUBTITLE:;
#ARTIST:MAMAMOO;
#TITLETRANSLIT:;
#SUBTITLETRANSLIT:;
#ARTISTTRANSLIT:;
#CREDIT:;
#BANNER:Wind Flower banner.png;
#BACKGROUND:Wind Flower bg.png;
#LYRICSPATH:;
#CDTITLE:;
#MUSIC:Wind Flower.mp3;
#OFFSET:-8.860;
#SAMPLESTART:54.120;
#SAMPLELENGTH:15.000;
#SELECTABLE:YES;
#BPMS:0.000=114.000;
#STOPS:;
#BGCHANGES:;

//---------------dance-single - ----------------
#NOTES:
     dance-single:
     :
     Hard:
     6:
     0.371,0.344,0.140,0.130,0.000:
0100
0000
0101
0000
0010
1000
0100
1000
,
0100
0000
0110
0000
0001
0010
0100
1000
,
0100
0000
0011
0000
0100
0010
0100
0001
,
0100
0000
0110
0000
1000
0100
0010
0001
,
0010
0000
1000
0000
0010
0100
0010
0001
,
0000
0010
0000
1000
0000
0010
0000
0100
,
0100
1000
0100
0010
0100
0010
0000
0100
,
0000
2000
0000
0000
3001
0001
0001
0010
,
0100
0010
1000
0100
0001
0100
0010
1000
,
0010
0100
0001
0010
0000
0010
0100
0010
,
0000
0010
1000
0100
0010
0001
0100
0010
,
0001
0010
0100
1000
0000
1000
0010
0100
,
0000
0100
0000
0001
0002
0000
0013
0100
,
0000
0100
0000
1000
0020
0000
0030
0100
,
0100
0000
0001
0010
0001
0000
0010
2000
,
0000
0100
0010
3010
,
0101
0000
0210
0000
0000
0000
0300
0001
,
0011
0120
0000
0030
,
1000
0010
0100
0001
,
0200
0000
0000
0300
,
0011
0000
2100
0000
0000
0000
3000
0010
,
0110
0000
1001
0000
0010
0100
1000
0100
,
0110
0000
0100
0001
0010
1000
0010
0200
,
0000
0300
1000
0000
0001
0010
0100
2000
,
0000
3000
0001
0010
0100
1000
0100
0010
,
0000
0002
0000
0003
1000
0010
0100
0010
,
0100
0000
1000
0001
0100
1000
0100
0010
,
0100
0010
0000
0001
0010
0000
0100
0010
,
0100
0000
0010
1000
0010
0000
0100
1000
,
0100
0000
0001
0010
0001
0000
0010
0000
,
1000
0100
1000
0010
,
0100
0000
0001
0010
0001
0000
0010
0000
,
0100
0001
0010
1000
,
0010
0100
0001
0100
0010
1000
0010
2000
,
0000
3000
0001
0010
0100
0001
0010
0200
,
0000
0310
0010
0010
0110
0000
1000
0100
,
0010
0000
0100
0010
0001
0000
0010
0100
,
0010
0000
1000
0001
1000
0000
0010
0000
,
1000
0000
0100
0000
0010
0001
0010
0100
,
0010
0000
1000
0000
0010
0000
0100
0001
,
0100
0000
0010
0000
1000
0000
0010
0100
,
0010
0000
1000
0001
1000
0000
0001
0010
,
0001
0000
0010
0100
1000
0100
0010
0100
,
0010
0000
0000
0000
;

//---------------dance-single - ----------------
#NOTES:
     dance-single:
     :
     Challenge:
     8:
     0.447,0.494,0.120,0.000,0.230:
0000
0010
0000
0100
0001
0010
0100
1000
,
0000
1000
0000
0010
0100
0001
0100
0010
,
0000
1000
0000
0010
0100
1000
0010
0100
,
0000
0100
0000
0001
0010
0001
0100
0110
,
0000
1100
0000
0010
0100
1000
0100
0110
,
0000
0011
0000
0110
0000
0100
0000
0010
,
1000
1000
0010
0100
0001
0100
0010
0100
,
0100
0000
0010
0000
1000
0100
0010
0001
,
0001
0010
0001
0010
0100
0010
1000
0100
,
1000
0010
0100
1000
0000
1000
0100
0010
,
0100
0010
1000
0001
0010
0100
0010
0001
,
0010
1000
0010
0100
0000
0100
0001
0010
,
0000
0000
1000
0001
0000
0001
1000
0000
1000
0000
0000
0000
0010
0000
0100
0000
,
1000
0000
0001
0010
0000
0010
0001
0000
0100
0000
0000
0000
0010
0000
0100
0000
,
0010
0000
1000
0100
0001
0100
1000
0010
,
0100
0000
0010
0000
0100
0001
0100
0000
,
0010
0000
1000
1000
0000
0000
0000
0100
,
0100
0000
0001
0001
0000
0000
0000
0000
,
0001
0010
0100
1000
0001
0010
0100
0000
,
0010
0100
0000
0100
0000
0000
0000
0000
,
0010
0000
0001
0001
0000
0000
0000
0010
,
0010
0000
0000
0000
0100
0000
0001
0000
1000
0100
0010
0001
0010
0000
0100
0010
,
0100
0000
0001
0010
0100
0010
1000
0010
,
0000
0010
0100
0001
1100
0110
0011
0010
,
0100
0010
0001
0100
1000
0010
0100
1000
,
0000
1000
0000
0010
0100
0100
0010
0001
,
0010
0000
0010
0100
0001
0010
1000
0010
,
0100
1000
0000
1000
0010
0000
0100
0001
,
0100
1000
0000
1000
0000
0000
0100
0000
0110
0000
0000
0000
0001
0000
1000
0000
,
0010
0001
0000
0001
0000
0000
0010
0000
0110
0000
0000
0000
1000
0000
0000
0000
,
1000
0100
0000
0000
0100
0010
0000
0000
0010
0001
0000
0000
0010
0000
0100
0010
,
0000
0000
0010
0000
0001
0000
1000
0010
0000
0000
0100
0000
0100
0000
0000
0000
,
0001
0010
0000
0000
0010
0100
0000
0000
0100
1000
0000
0000
0010
0000
0100
0000
,
0010
0000
0001
0000
0010
0100
0000
0100
0010
0000
1000
0000
0010
0000
0100
0000
,
0110
0000
0001
0010
1000
0010
0001
0010
,
0000
0001
0100
1000
0010
0000
0100
1000
,
0010
0100
0000
0100
0000
0000
1000
0000
0010
0000
0000
0000
0100
0000
0001
0000
,
0100
0010
0000
0010
0000
0000
0001
0000
0100
0000
0000
0000
0010
0000
0000
0000
,
0100
0000
0100
0000
0010
0000
0000
0000
1000
0001
0100
1000
0010
0000
0000
0100
,
0010
0000
1000
0000
0001
0000
0010
0000
1000
0000
0010
0100
0010
0000
1000
0000
,
1001
0000
0000
0000
0100
0001
0100
0010
1000
0010
0100
1000
0100
0010
0100
0001
,
0100
0000
0000
0000
0010
0001
0000
0001
1000
0000
0000
0000
0010
1000
0000
1000
,
0010
0100
0000
0100
0001
1000
0000
1000
0010
0000
1000
0100
0010
0001
0100
0010
,
1000
0000
0000
0000
;

//---------------dance-single - ----------------
#NOTES:
     dance-single:
     :
     Medium:
     5:
     0.290,0.236,0.000,0.110,0.000:
0010
0000
0100
0000
0001
0010
0001
0000
,
0010
0000
0100
0000
1000
0100
1000
0000
,
0010
0000
0100
0000
1000
0010
1000
0000
,
0100
0000
0010
0000
0100
0000
0001
0010
,
0000
0010
0000
0000
0100
0000
0010
1000
,
0000
0100
0000
0001
0000
0100
0000
0010
,
0100
0000
1000
0000
0010
0000
0100
0010
,
0100
0000
0010
0000
1000
0001
1000
0000
,
0010
0100
1000
0100
,
0010
0000
1000
1000
0000
0001
0001
0000
,
0100
0010
0001
0010
,
0100
0000
0001
0010
0000
0010
0100
1000
,
0000
0100
0000
0010
0100
0000
0010
0100
,
0000
0010
0000
1000
0001
0000
0010
0000
,
0100
0000
0001
0000
0100
0000
0010
1000
,
0010
0100
1000
0010
,
0100
0000
0200
0000
0000
0000
0300
0001
,
0001
0000
0020
0000
0000
0000
0000
0030
,
1000
0100
0010
0100
,
0002
0000
0000
0000
0000
0000
0000
0003
,
0010
0000
0200
0000
0000
0000
0300
0010
,
0010
0000
1000
0000
0010
0100
0010
0200
,
0000
0300
0001
1000
0001
0000
0010
0200
,
0000
0300
0100
0000
0010
1000
0010
2000
,
0000
3000
0100
0010
0001
0000
0010
0100
,
0000
0200
0000
0300
0010
0000
1000
0002
,
0000
0003
0100
0000
0010
0000
0001
1000
,
0001
1000
0000
0010
0100
0000
0010
0000
,
1000
0000
0001
0010
0001
0000
0100
0000
,
0010
0000
1000
0001
1000
0000
0010
0000
,
1000
0100
0010
0001
,
0001
0010
0100
0010
,
0001
0010
0100
1000
,
0010
0000
0100
0000
0001
1000
0001
2000
,
0000
3000
0010
0100
0010
0000
1000
0001
,
0000
0010
0010
0010
0200
0000
0300
0000
,
0010
0000
1000
0010
1000
0000
0010
0000
,
0100
0000
0001
0010
0001
0000
0100
0000
,
0010
1000
0010
0010
,
0100
0000
0001
0000
0100
0000
0010
1000
,
0010
0000
0100
0000
1000
0000
0010
0100
,
0010
0100
0001
0100
,
0010
1000
0001
0100
,
1000
0000
0000
0000
;

//---------------dance-single - ----------------
#NOTES:
     dance-single:
     :
     Easy:
     2:
     0.230,0.215,0.010,0.060,0.000: // measure 1
0010
0010
0100
0001
,  // measure 2
0100
0100
0010
1000
,  // measure 3
0010
0010
0100
1000
,  // measure 4
0001
0001
0010
1000
,  // measure 5
0010
0010
0001
0010
,  // measure 6
0001
0001
0010
0010
,  // measure 7
0100
0010
1000
0010
,  // measure 8
0200
0300
0010
0010
,  // measure 9
0100
1000
0100
0010
,  // measure 10
0100
0001
0000
1000
,  // measure 11
0010
0100
1000
0010
,  // measure 12
0100
0001
0000
0010
,  // measure 13
0100
0100
0010
1000
,  // measure 14
0001
0001
0200
0300
,  // measure 15
0010
0010
1000
0100
,  // measure 16
1000
0010
0100
0001
,  // measure 17
0100
0200
0000
0300
,  // measure 18
0001
0002
0000
0003
,  // measure 19
0010
0100
1000
0010
,  // measure 20
0200
0000
0000
0300
,  // measure 21
0010
0020
0000
0030
,  // measure 22
0100
0100
0010
0010
,  // measure 23
1001
0010
0100
0001
,  // measure 24
0100
0010
0010
0010
,  // measure 25
0100
0001
1000
0010
,  // measure 26
1000
0010
0100
0010
,  // measure 27
0100
0100
1000
0010
,  // measure 28
0100
0001
0100
0000
,  // measure 29
0010
0010
0100
0000
,  // measure 30
0001
0001
0100
0000
,  // measure 31
0010
1000
0010
0100
,  // measure 32
0001
0100
0010
0010
,  // measure 33
1000
0100
1000
0010
,  // measure 34
0100
0001
0100
0100
,  // measure 35
0010
1000
0010
0100
,  // measure 36
0001
0010
0010
0000
,  // measure 37
0010
0100
0001
0000
,  // measure 38
1000
0010
1000
0000
,  // measure 39
0010
0010
0100
0001
,  // measure 40
0100
0010
1000
0010
,  // measure 41
0010
0100
0001
1000
,  // measure 42
1000
0010
0010
0100
,  // measure 43
0001
0010
0001
0100
,  // measure 44
0010
0000
0000
0000
;
