#TITLE:Wildest Dreams;
#SUBTITLE:;
#ARTIST:Brandy;
#TITLETRANSLIT:;
#SUBTITLETRANSLIT:;
#ARTISTTRANSLIT:;
#CREDIT:;
#BANNER:Wildest Dreams banner.png;
#BACKGROUND:Wildest Dreams bg.png;
#LYRICSPATH:;
#CDTITLE:cdtitle.png;
#MUSIC:Wildest Dreams.mp3;
#OFFSET:-10.720;
#SAMPLESTART:62.880;
#SAMPLELENGTH:15.000;
#SELECTABLE:YES;
#BPMS:0.000=92.100;
#STOPS:;
#BGCHANGES:;

//---------------dance-single - ----------------
#NOTES:
     dance-single:
     :
     Hard:
     7:
     0.341,0.336,0.093,0.176,0.005:
1001
2000
0000
3010
0100
0010
0001
0010
,
0101
0200
0000
1300
0010
0100
0001
0100
,
1001
1001
0000
0100
0000
0100
0010
1000
,
0011
0002
0000
0013
0100
0010
0100
1000
,
0010
0000
1000
0000
0001
0010
0100
0010
,
2000
0000
3001
0000
0010
0100
0010
0100
,
0010
0000
1000
0000
0001
0100
0010
0001
,
0020
0000
0031
0000
0100
0010
0010
1000
,
0010
0100
0010
0000
1000
0100
0100
1000
,
0100
0000
0010
0000
0100
0001
0010
0100
,
1000
0000
0010
0000
0100
0000
0001
0010
,
0020
0000
0000
0000
0100
0000
0100
0030
,
0100
0000
0001
0000
0010
1000
0100
0010
,
0100
0000
1000
0000
0010
0100
0010
0001
,
0001
0010
0000
0010
0100
1000
0100
0010
,
0100
0000
1000
0000
0010
0100
0001
0100
,
0010
0000
0001
0000
0010
0000
0100
0010
,
1000
1000
0100
0010
0001
0010
0100
2000
,
3000
0010
0100
0001
0100
0020
0000
0030
,
0100
0000
0001
0001
0010
0000
1000
0100
,
0110
0000
1000
0001
2000
0000
3010
0100
,
0001
0100
0020
0000
0130
0100
1000
1000
,
0100
0000
0010
0100
1000
0100
0001
0100
,
0010
0100
0002
0000
0013
0100
0100
0010
,
1000
0010
0100
0001
0010
0001
0100
1000
,
0000
0000
0010
0000
0100
0000
0001
1000
0001
0000
0010
0000
0100
0000
0000
0000
,
0011
0000
0100
0100
1100
0000
0010
0010
,
0110
0000
1000
0001
2000
0000
3100
0100
,
0010
0000
0001
0010
0200
0000
0310
1000
,
0010
0020
0000
1030
0100
1000
0100
0001
,
0100
2000
0000
3001
0010
0100
0010
0001
,
0100
0020
0000
0130
1000
0100
0001
0100
,
0010
0200
0000
0300
0000
0000
0000
0000
;

//---------------dance-single - ----------------
#NOTES:
     dance-single:
     :
     Medium:
     4:
     0.236,0.216,0.000,0.104,0.000:
0010
0000
0100
0001
0200
0000
0310
0000
,
1000
0000
0010
0100
0020
0000
0031
0000
,
0010
0010
0000
0000
0100
0000
1000
0000
,
0100
0000
0010
1000
0020
0000
0130
0000
,
0001
0010
0001
0100
,
0010
0000
1000
0000
0100
0010
0001
0000
,
0010
0010
0100
0001
,
1000
0000
0010
0000
0100
0000
1000
0010
,
1000
0010
0100
0001
,
0010
0000
0001
0000
0100
0010
0100
0000
,
0010
1000
0001
0100
,
0020
0000
0000
0030
,
0100
0000
0001
0000
0010
0001
0010
0000
,
0100
0000
0010
0000
1000
0100
1000
0000
,
0010
0000
1000
0000
0010
0100
0010
0000
,
1000
0000
0001
0000
0100
0001
0100
0000
,
0010
1000
0010
0100
,
0001
0000
1000
0100
1000
0000
0010
0000
,
0010
0100
0001
0100
,
0010
0000
1000
0001
1000
0000
0010
0000
,
0100
0000
0001
1000
0001
0000
0000
0010
,
0100
0010
0200
0000
0000
0000
0310
0000
,
0001
0000
1000
1000
0100
0100
0001
0001
,
0010
0010
0200
0000
0000
0000
0310
0000
,
0001
0000
0010
0000
0100
0010
0100
0000
,
0010
0000
1000
0000
0001
0100
0001
0000
,
0010
0000
1000
0100
0000
0000
0001
0010
,
0000
0000
1000
0100
0010
0000
0010
0000
,
0100
0000
0010
0001
0020
0000
0130
0000
,
0001
0000
1000
0010
2000
0000
3010
0000
,
0100
0000
0001
0100
0002
0000
1003
0000
,
0010
0000
0100
0001
0200
0000
0310
0000
,
0100
0000
0000
0000
;

//---------------dance-single - ----------------
#NOTES:
     dance-single:
     :
     Easy:
     2:
     0.172,0.166,0.010,0.093,0.000: // measure 1
1000
0000
0100
0100
,  // measure 2
0001
0000
0010
0010
,  // measure 3
0100
0000
0001
1000
,  // measure 4
0010
0000
0100
0100
,  // measure 5
0010
0100
1000
0100
,  // measure 6
0020
0030
0100
0001
,  // measure 7
0100
0010
1000
0010
,  // measure 8
0002
0003
0100
1000
,  // measure 9
0100
1000
0010
0100
,  // measure 10
0020
0030
0100
0001
,  // measure 11
0100
0010
1000
0100
,  // measure 12
0002
0000
0000
0003
,  // measure 13
0010
0100
0010
1000
,  // measure 14
0010
0100
1000
0100
,  // measure 15
0001
0100
0010
0100
,  // measure 16
0010
1000
0001
0100
,  // measure 17
0020
0000
0030
0100
,  // measure 18
1000
1000
0001
0001
,  // measure 19
0010
0001
0020
0030
,  // measure 20
0100
0010
0100
0010
,  // measure 21
1001
0010
0020
0030
,  // measure 22
0100
0200
0300
0001
,  // measure 23
0010
1000
0010
0100
,  // measure 24
0001
2000
3000
0010
,  // measure 25
0100
1000
0100
0010
,  // measure 26
0001
0100
0010
0001
,  // measure 27
0100
0010
0000
1000
,  // measure 28
0000
0010
0000
0100
,  // measure 29
0010
0000
1000
1000
,  // measure 30
0010
0000
0100
0100
,  // measure 31
0001
0000
0100
0100
,  // measure 32
0010
0000
0001
0001
,  // measure 33
0010
0000
0000
0000
;
