#TITLE:WHOO;
#SUBTITLE:;
#ARTIST:RAINBOW;
#TITLETRANSLIT:;
#SUBTITLETRANSLIT:;
#ARTISTTRANSLIT:;
#CREDIT:;
#BANNER:Whoo banner.png;
#BACKGROUND:Whoo bg 2.png;
#LYRICSPATH:;
#CDTITLE:;
#MUSIC:Whoo.mp3;
#OFFSET:-11.860;
#SAMPLESTART:46.420;
#SAMPLELENGTH:15.000;
#SELECTABLE:YES;
#BPMS:0.000=143.100;
#STOPS:;
#BGCHANGES:;

//---------------dance-single - ----------------
#NOTES:
     dance-single:
     :
     Hard:
     7:
     0.518,0.499,0.511,0.293,0.050:
1001
0000
0010
0000
0100
0010
0010
0000
,
0000
0100
0100
0000
1000
0100
0000
0022
,
0000
0000
0033
0220
0000
0000
0330
2200
,
0000
0000
3300
0000
0001
0010
0001
0000
,
0110
1100
0110
0011
,
1000
0001
0000
0010
0000
1000
0100
1000
,
0000
0010
0100
0010
1000
0001
0100
0010
,
0000
1000
0100
0010
0001
0010
0100
2000
,
0000
3000
0110
0110
0000
0001
0010
1000
,
0100
0000
0010
0100
0000
1000
0001
1000
,
0000
0100
0001
0010
1000
0001
0100
0020
,
0000
0000
0130
0000
0001
1000
0001
0000
,
0100
0100
1000
0001
0000
0100
0000
0010
,
0000
1000
0000
0001
0000
0100
1000
0100
,
0000
0001
0010
0100
1001
0000
1001
0000
,
1000
1000
0010
0010
0100
0001
0000
0000
,
0001
0001
0100
0100
0010
1000
0100
0010
,
0000
0010
0000
0001
0000
1000
0000
0110
,
0000
1100
0000
1001
0000
0000
0100
0000
,
0011
0000
0110
0000
1100
0100
0000
0010
,
0220
0000
0000
0000
0330
1000
0100
0002
,
0000
0000
0013
0000
1000
0001
1000
0000
,
0010
0100
1000
0001
0000
0100
0010
0100
,
0000
1000
0002
0000
0010
0000
0013
1000
,
0100
0010
0100
0001
0000
0010
0100
0020
,
0030
0000
1001
0000
0000
0100
0100
0000
,
0001
0000
0000
0000
0000
0000
0000
0010
0000
0000
0100
0000
0000
0000
0000
0000
0010
0000
0100
0000
0000
0000
0000
0000
0000
0000
0000
0000
0000
0000
1000
0000
0000
0000
0000
0000
0100
0000
0000
0000
0000
0000
0001
0000
0000
0000
0000
0000
,
1000
0000
0000
0000
0000
0000
0000
0100
0000
0000
0010
0000
0000
0000
0000
0000
0100
0000
0020
0000
0000
0000
0000
0000
0000
0000
0000
0000
0000
0000
0000
0000
0000
0000
0000
0000
0030
0000
0000
0000
0000
0000
1000
0000
0000
0000
0000
0000
,
0100
0010
0001
0110
0000
0220
0000
0330
,
1001
0000
0100
0000
0001
0110
0110
0000
,
1000
0110
0110
0000
1000
0001
0000
0110
,
0000
0001
1000
0000
0010
1001
1001
0000
,
0100
1001
1001
0000
1000
0100
1000
0100
,
0010
0000
0110
0000
0001
1100
1100
0000
,
0010
1100
1100
0000
0010
0100
0000
0022
,
0000
0033
0100
2200
0000
3300
0010
0220
,
0000
0330
0100
0000
0001
0000
0010
0000
,
1000
0001
0100
0010
1000
0001
0010
0200
,
0000
0300
0110
0000
1000
0100
1000
0000
,
0001
0010
0100
1000
0000
0100
0010
0001
,
0000
1000
0020
0000
0100
0100
0130
0000
,
1001
1001
0000
0010
0000
1000
0100
1000
,
0000
0010
0110
0000
1000
0001
1000
0000
,
0100
0010
0001
0100
0000
0010
1000
0100
,
0000
0001
2000
0000
0100
0100
3100
0000
,
0110
0000
0011
0000
0100
1000
0010
0002
,
0000
0000
0003
1001
,
0010
0100
1000
0110
0000
0001
1000
0200
,
0000
0010
0310
0000
0001
1000
0010
0100
,
1000
0001
0100
0010
0000
1000
0100
0010
,
0000
0001
0001
0100
0010
0100
0000
0010
,
1000
0000
0000
0000
0000
0000
0000
0100
0000
0000
0010
0000
0000
0000
0000
0000
0100
0000
0010
0000
0000
0000
0000
0000
0000
0000
0000
0000
0000
0000
0001
0000
0000
0000
0000
0000
0001
0000
0000
0000
0000
0000
0100
0000
0000
0000
0000
0000
,
0001
0000
0000
0000
0000
0000
0000
0010
0000
0000
0100
0000
0000
0000
0000
0000
0010
0000
0100
0000
0000
0000
0000
0000
0000
0000
0000
0000
0000
0000
1000
0000
0000
0000
0000
0000
1000
0000
0000
0000
0000
0000
0010
0000
0000
0000
0000
0000
,
0100
0001
1000
0110
0000
2002
0000
3003
,
0110
0000
1000
0000
0001
0010
0100
0000
,
1000
0100
0010
0000
0100
0001
0000
0110
,
0000
1000
0001
0000
0010
1000
0100
0000
,
0100
0001
0010
0000
1000
0100
0010
0001
,
1001
0000
0100
0000
0001
1001
1001
0000
,
1000
1001
1001
0000
0010
0100
0000
2200
,
0000
3300
0000
0220
0000
0330
0000
0022
,
0000
0030
0000
0000
0100
0100
0100
0000
,
0100
0100
0103
1001
;

//---------------dance-single - ----------------
#NOTES:
     dance-single:
     :
     Medium:
     6:
     0.376,0.368,0.092,0.100,0.000:
1001
0000
0100
0000
0001
0100
0100
0000
,
0010
1000
1000
0000
0010
0100
0000
0100
,
0020
0000
0030
0002
0000
0003
0000
2000
,
0000
0100
0100
3100
,
0010
0100
0010
0001
,
0100
0100
0000
0010
0000
1000
0100
1000
,
0000
0010
0010
0000
0100
0000
0001
0010
,
0000
0010
0001
0000
0100
0000
0010
0200
,
0000
0300
0000
1000
1000
0000
0010
0100
,
0010
0000
1000
0000
0001
0000
0100
0010
,
0000
0010
0001
0000
0010
0000
0100
1000
,
0000
1000
0100
0000
0010
0100
0010
0000
,
1000
0000
0001
0001
0000
0010
0000
1000
,
0000
0010
0000
1000
0000
0010
0100
0010
,
0000
0100
0100
0100
0100
0000
0010
0000
,
1000
0001
1000
0011
,
0100
0010
0100
0011
,
1000
0010
1000
0100
,
0010
0000
0100
0000
0020
0000
0000
0030
,
1000
0000
0100
0000
0010
0010
0000
0100
,
0120
0000
0000
0000
0000
0030
1000
0000
,
0101
0010
1000
0010
,
0100
0000
1000
1000
0000
0001
0001
0000
,
0100
0010
1000
0001
,
0100
0000
1000
0100
0000
0010
0100
0000
,
0010
1010
0100
0001
,
0100
0010
0100
0020
0000
0030
1000
0000
,
0001
0010
0001
0020
0000
0030
0100
0000
,
0001
0010
0100
1000
0000
1000
0000
0000
,
1001
0000
0010
0000
1000
0100
0100
0000
,
0001
0100
0100
0000
0010
1000
0000
1000
,
0010
0000
0100
0000
0001
0100
0100
0000
,
0010
1000
1000
0000
0010
0000
1000
0000
,
0110
0000
0001
0000
1000
0100
0100
0000
,
0010
0100
0100
0000
0001
0100
0000
0100
,
0000
0010
0100
0010
0000
1000
0010
1000
,
0000
0100
0001
0100
,
0010
1000
0010
0100
,
0001
0001
0010
0010
,
0100
0100
1000
1000
,
0010
0100
0010
0100
,
0001
1000
0000
0010
0000
0100
0010
0100
,
0010
1000
0010
0100
,
0001
0000
1000
0010
0000
0010
0100
0000
,
0001
0001
0001
0000
0100
0000
0010
0000
,
1000
0100
0010
0001
,
0200
0000
0000
0310
,
0010
0000
1000
0010
0000
0010
0100
0000
,
0001
0100
0010
1000
,
0100
0000
0001
0100
0000
0100
0001
0000
,
0010
0100
0010
0010
,
1000
0001
1000
0002
0000
0003
0100
0000
,
0010
1000
0010
2000
0000
3000
0010
0000
,
0100
0010
0100
0010
0000
0020
0000
0030
,
1001
0000
1000
0000
0001
0100
0100
0000
,
0010
1000
1000
0000
0010
0100
0000
0100
,
0010
0000
0001
0000
1000
0001
0001
0000
,
0100
0010
0010
0000
1000
0000
0001
0000
,
1100
0000
0010
0000
0100
0001
0001
0000
,
0010
0100
0100
0000
0010
1000
0000
1000
,
0010
0000
0100
0001
0000
0001
0100
0000
,
0010
1000
0010
1000
,
0010
0010
0010
0110
;

//---------------dance-single - ----------------
#NOTES:
     dance-single:
     :
     Easy:
     3:
     0.307,0.289,0.084,0.184,0.000: // measure 1
1000
0010
0100
0100
,  // measure 2
0001
0001
0010
0100
,  // measure 3
0002
0000
2003
0000
,  // measure 4
3020
0000
0000
0000
,  // measure 5
0130
0100
0100
0100
,  // measure 6
0010
1000
0010
1000
,  // measure 7
0100
1000
0100
0010
,  // measure 8
0001
0001
1000
1000
,  // measure 9
0010
0100
0010
0001
,  // measure 10
0010
0110
1000
0100
,  // measure 11
1000
1000
0010
0010
,  // measure 12
0100
0001
0100
0010
,  // measure 13
0001
0010
0100
1000
,  // measure 14
0020
0030
0100
0100
,  // measure 15
0002
0003
1000
1000
,  // measure 16
0010
0100
1000
0100
,  // measure 17
0010
0100
1000
0100
,  // measure 18
0001
0100
0001
0010
,  // measure 19
1000
0010
0200
0300
,  // measure 20
0010
0010
0100
0010
,  // measure 21
0220
0000
0330
0001
,  // measure 22
0110
1000
0100
0010
,  // measure 23
0100
0001
0100
0010
,  // measure 24
1000
0020
0130
0100
,  // measure 25
0001
1000
0010
0100
,  // measure 26
0002
0013
0100
0100
,  // measure 27
0010
1000
0020
0030
,  // measure 28
0010
0100
0020
0030
,  // measure 29
1000
1000
0001
0001
,  // measure 30
1010
0100
0001
0001
,  // measure 31
0100
0100
0001
1000
,  // measure 32
0010
0100
0001
0001
,  // measure 33
1000
1000
0010
0100
,  // measure 34
0001
1000
0010
0010
,  // measure 35
0100
0100
0001
0100
,  // measure 36
0020
0000
2030
0000
,  // measure 37
3002
0000
0000
0013
,  // measure 38
0100
0100
0100
0010
,  // measure 39
1000
1000
0100
0100
,  // measure 40
0010
0010
0001
0001
,  // measure 41
0010
0100
0010
0100
,  // measure 42
0001
0000
0001
0000
,  // measure 43
0010
0110
1000
1000
,  // measure 44
0010
0100
0001
0100
,  // measure 45
0010
2000
3000
0010
,  // measure 46
0100
0100
0001
0001
,  // measure 47
2000
0000
3000
0110
,  // measure 48
0010
0001
0010
0100
,  // measure 49
0010
0010
1000
1000
,  // measure 50
0100
1000
0100
0010
,  // measure 51
0100
0011
0010
0010
,  // measure 52
0100
0001
0200
0300
,  // measure 53
0010
1000
0020
0030
,  // measure 54
0100
0100
1000
1000
,  // measure 55
0101
0010
1000
1000
,  // measure 56
0010
0010
0100
0001
,  // measure 57
0010
1000
0010
0010
,  // measure 58
1000
1000
0100
1000
,  // measure 59
0110
0001
0100
0100
,  // measure 60
0001
0001
0010
0100
,  // measure 61
0020
0000
0230
0000
,  // measure 62
0302
0000
0000
0013
,  // measure 63
0100
0100
0100
0110
;
