#TITLE:Vibrato;
#SUBTITLE:;
#ARTIST:Stellar;
#TITLETRANSLIT:;
#SUBTITLETRANSLIT:;
#ARTISTTRANSLIT:;
#CREDIT:;
#BANNER:Vibrato banner.png;
#BACKGROUND:Vibrato bg.png;
#LYRICSPATH:;
#CDTITLE:;
#MUSIC:Vibrato.mp3;
#OFFSET:-8.960;
#SAMPLESTART:41.240;
#SAMPLELENGTH:15.000;
#SELECTABLE:YES;
#BPMS:0.000=116.020,96.000=106.100,144.000=116.020;
#STOPS:;
#BGCHANGES:;

//---------------dance-single - ----------------
#NOTES:
     dance-single:
     :
     Hard:
     8:
     0.559,0.530,0.180,0.098,0.470:
1001
0000
0000
0000
0010
0000
0100
0000
0001
0000
0000
0010
0100
0000
0000
0010
,
0100
1000
0000
0000
0100
0000
0000
0100
0000
0000
0001
0000
1000
0010
0000
0010
,
0000
0000
0010
0000
0100
0000
0001
1000
0000
0000
1000
0000
0010
0000
0100
0001
,
0000
0000
0100
0001
0000
0010
0000
0100
1000
0000
0010
0000
0010
0000
0200
0000
,
0000
0000
0300
0000
0001
0000
0010
0000
0100
0000
0000
0010
1000
0000
0000
1000
,
0100
0010
0000
0000
1000
0000
0000
1000
0000
0000
0001
0000
0100
0010
0000
0010
,
0000
0000
0001
0000
0100
0000
0010
1000
0000
0000
1000
0000
0100
0000
0010
0001
,
0000
0000
0001
0010
0000
0010
0000
0100
0010
0000
0001
0000
0010
0000
0100
0000
,
1001
0000
0010
0000
0001
0010
0100
1000
0100
0000
0010
0100
0000
0100
0000
0000
,
1010
0000
1010
0000
0100
0010
0001
0010
0100
0000
0010
1000
0000
1000
0010
0000
,
0100
0000
0001
0000
0100
0000
0010
0001
0010
0000
0100
0000
0010
1000
0010
0100
,
0002
0000
0000
0000
0003
0110
0000
1001
,
0000
0000
0010
0100
1000
0100
0010
0001
0010
0100
0010
1000
0000
0000
1000
0000
,
0100
0000
0100
0001
0100
0000
0010
0000
1000
0001
0000
0002
0000
0000
0003
0000
,
0010
0000
0100
0000
1000
0000
0100
0000
0000
0001
0000
0010
0000
0100
0000
1000
0000
0000
0010
0000
0100
0000
0001
0000
,
0010
0000
0000
0000
0200
0000
0000
0000
0000
0000
0000
0000
0000
0000
0000
0000
0000
0000
0301
0000
0000
1000
0000
0000
0001
0000
0000
0000
0000
0000
0010
0000
0000
0000
0000
0000
0100
0000
0000
0000
0000
0000
0010
0000
0000
1000
0000
0000
,
0010
0000
0100
0000
0001
0000
0010
0000
1000
0000
0010
0000
0100
0000
0001
0100
,
1000
0000
0000
0000
1000
0000
0010
0100
0000
0000
0010
0000
0001
0000
0100
0010
,
0100
0000
0001
0000
0010
0000
1000
0000
0010
0000
0001
0000
0100
0000
0010
1000
,
0000
0000
1000
0000
0010
0000
0100
0001
0100
0000
0010
0000
1000
0000
0100
0010
,
0001
0010
1000
0001
0010
0001
0100
0010
,
1000
0000
0001
0000
0010
0000
0001
0000
0010
0000
0100
0000
0001
0000
1000
0100
,
0000
0000
0100
0000
1000
0000
0100
0010
0000
0000
0001
0000
0100
0000
0010
1000
,
0020
0000
0000
0000
0001
0000
0000
0000
0100
0000
0000
0000
0031
0000
0100
1000
,
0100
0000
0001
0100
0000
0100
0010
0000
1000
0000
0001
0010
0100
1000
0100
0010
,
0100
0000
0001
1000
0000
1000
0001
0000
1000
0000
0010
0100
1000
0000
0100
0001
,
0010
0000
0100
0010
0000
0010
0100
0000
0010
0000
1000
0100
0010
0000
0001
0010
,
0100
0000
0010
0100
0000
1000
0100
0000
0010
0000
0100
0010
0001
0010
0100
0010
,
1000
0000
0100
0010
0000
0000
0001
0000
0010
0000
0100
0001
0000
0000
0010
0000
,
1000
0000
0100
0000
0010
0000
0002
0000
0000
0000
0003
0010
0000
0010
0000
0000
,
0100
0000
0001
0000
0100
0010
0100
0000
1000
0000
0010
0000
1000
0010
1000
0000
,
0001
0010
0200
0000
0000
0000
0310
0100
2000
0000
0000
0000
3100
0000
0000
0000
,
0010
0000
0100
0001
0000
0001
0010
0000
0100
0000
0010
0000
1000
0000
0010
0000
,
0100
1000
0010
0110
0000
0010
0010
0001
,
1000
0000
0100
0000
0010
0000
0001
0010
0001
0000
0010
0000
0100
0000
1000
0100
,
0010
0000
0001
0000
0010
0000
0100
0000
0001
0010
0100
1000
0100
0010
0001
0010
,
0100
0000
1000
0000
0010
0100
0001
0100
0000
0000
0010
0000
0110
0000
0010
0000
,
1000
0000
0100
0000
0001
0010
1000
0010
0000
0000
0100
0000
1100
0000
0001
0000
,
0010
0002
0013
0100
0010
2000
3010
0100
,
0100
0001
0100
0010
0200
0000
0301
0000
,
0011
0000
1000
0000
1100
0000
0010
0000
0110
0000
0001
1000
0000
0000
0010
0000
,
1100
0000
0100
0000
0110
0000
0010
0000
0011
0000
0010
0100
0000
0000
0010
0000
,
1001
0000
1001
0000
0110
0000
0110
0000
0001
0000
0010
0200
0000
0000
0300
0000
,
0010
0000
1000
0000
0010
0000
0001
0100
0000
0000
0010
0000
1000
0000
0010
0100
,
0010
0001
0010
0100
0010
1000
0010
1000
,
0010
0000
1000
0000
0100
0000
0001
0000
0100
0010
1000
0100
0000
0000
0010
0000
,
0110
1000
0001
0010
0100
0010
1000
0001
,
0100
0000
0010
0000
0001
0000
1000
0010
0000
0001
0000
0010
0000
0000
0100
0000
,
0011
1000
0100
0010
0100
0010
0001
0100
,
0110
0000
1000
0000
0001
0000
0010
0001
0000
0100
0000
0010
1000
0000
1000
0100
,
0000
0000
0100
0000
1000
0000
0100
0010
0000
0000
0100
0000
0001
0000
1000
0010
,
1000
0000
0000
0000
0100
0000
0000
0000
0010
0000
0000
0000
0001
1000
0001
0000
;

//---------------dance-single - ----------------
#NOTES:
     dance-single:
     :
     Medium:
     5:
     0.294,0.276,0.016,0.065,0.000:
1000
0000
0100
0010
0010
0000
0001
0000
,
0100
0000
0010
0000
1000
0000
0001
0001
,
0010
0000
1000
1000
0100
0000
0010
0100
,
0010
0000
0001
0000
0100
0100
0000
0002
,
0000
0013
0010
0100
,
0010
1000
0010
0000
0010
0000
0100
0100
,
1000
0000
0001
0001
0010
0000
0100
0010
,
0100
0001
1000
0010
,
1000
0000
0100
0000
0001
0010
0001
0000
,
0100
0000
0010
0000
0001
0000
0100
0100
,
0010
0000
1000
0000
0100
0000
0001
0010
,
0002
0000
0000
0000
0000
0013
0000
0010
,
0000
0100
0100
0000
0010
0000
1000
0000
,
0100
0000
0010
0000
1000
0001
1000
0000
,
0010
0100
1000
0010
,
0001
0100
0000
0100
0001
0000
0010
0000
,
0110
1000
0100
1000
,
0010
0000
0010
0000
0100
0000
0001
0010
,
0100
0001
1000
0010
,
0100
0000
0100
0000
0100
0000
0010
1000
,
0010
0000
0100
0000
0001
0000
0010
0010
,
0100
0000
0001
0000
1000
0000
0010
0100
,
1000
0000
0010
0100
1000
0000
0010
0100
,
2000
0000
0000
3100
,
0010
0100
0001
0010
,
1000
0000
0010
0000
0001
0001
0001
0000
,
0010
0100
0010
1000
,
0010
0000
0100
0000
1000
1000
1000
0000
,
0100
0010
0100
0001
,
1000
0001
1000
0002
0000
0000
0003
0000
,
0010
0100
0010
1000
,
0001
1000
0000
1000
0002
0000
0003
0000
,
0010
0010
0100
0001
,
1000
0010
1000
0020
0000
0000
0130
0000
,
0100
0001
1000
0010
,
0100
0000
0001
0000
0100
0100
0100
0100
,
0100
0000
0010
0000
1000
0000
0010
0001
,
0010
0000
0100
0000
0010
0000
1000
0010
,
2000
3000
0000
1000
0200
0300
0010
0000
,
0100
0001
1000
0010
,
0001
0000
0010
0000
0100
1000
0100
0000
,
0010
0000
0100
0000
0010
0001
0010
0000
,
0100
0100
0010
0010
0100
0100
0010
0000
,
1000
0100
0010
0001
,
0110
0001
0010
0100
,
0010
0000
0001
0000
1000
0010
1000
0000
,
0010
0100
0010
0001
,
0100
0000
0010
0000
1000
0000
0100
0010
,
0001
1000
0010
0100
,
0010
0000
0010
0000
0010
0000
0001
0010
,
0100
0000
0010
0100
1000
0000
0010
0100
,
1000
0000
0100
0000
0010
0000
0001
0001
;

//---------------dance-single - ----------------
#NOTES:
     dance-single:
     :
     Easy:
     3:
     0.243,0.234,0.025,0.065,0.000: // measure 1
0100
0010
0010
0010
,  // measure 2
0001
1000
0010
0100
,  // measure 3
1000
0100
0010
0100
,  // measure 4
0020
0030
0100
0100
,  // measure 5
0010
1000
1000
1000
,  // measure 6
0100
0001
0100
0010
,  // measure 7
0001
0010
0100
1000
,  // measure 8
0020
0030
0001
0001
,  // measure 9
1000
0100
0010
0001
,  // measure 10
0100
0100
0001
0010
,  // measure 11
0100
0010
1000
0010
,  // measure 12
2000
0000
0000
0000
3000
0100
0000
0000
,  // measure 13
0010
0100
0010
0010
,  // measure 14
0001
1000
0001
0001
,  // measure 15
0010
0010
0100
0100
,  // measure 16
0020
0000
0130
0010
,  // measure 17
1001
0010
0100
0100
,  // measure 18
0010
0100
1000
0100
,  // measure 19
0010
0001
0100
0010
,  // measure 20
1000
1000
0100
1000
,  // measure 21
0010
0100
0001
0010
,  // measure 22
0001
0000
0010
0010
,  // measure 23
0100
0100
1000
1000
,  // measure 24
0100
0010
0100
0010
,  // measure 25
1000
0100
0010
0001
,  // measure 26
1000
0100
0010
0001
,  // measure 27
0001
0010
0100
1000
,  // measure 28
0001
0010
0100
1000
,  // measure 29
0010
0010
0100
0100
,  // measure 30
0002
0000
0003
0000
,  // measure 31
0010
0010
0100
0100
,  // measure 32
2000
3000
0002
0003
,  // measure 33
0010
1000
0010
0100
,  // measure 34
0001
0001
0100
0010
,  // measure 35
1000
1000
0001
0001
,  // measure 36
0100
0100
0010
0010
,  // measure 37
1000
0100
0010
0001
,  // measure 38
1000
0100
0010
0001
,  // measure 39
0100
0100
0020
0030
,  // measure 40
0100
0100
0010
0010
,  // measure 41
1000
0001
1000
0001
,  // measure 42
0010
0100
0010
0100
,  // measure 43
0001
1000
0001
1000
,  // measure 44
0010
0010
0100
0100
,  // measure 45
1001
0010
0100
0010
,  // measure 46
1000
0010
0100
0001
,  // measure 47
1001
0010
0100
0001
,  // measure 48
0010
1000
0010
0100
,  // measure 49
1000
0010
0010
0100
,  // measure 50
0100
0001
0010
0100
,  // measure 51
1000
1000
0100
0010
,  // measure 52
0001
0010
0010
0010
,  // measure 53
0010
0000
0000
0000
;
