#TITLE:Thumbs Up;
#SUBTITLE:;
#ARTIST:MOMOLAND;
#TITLETRANSLIT:;
#SUBTITLETRANSLIT:;
#ARTISTTRANSLIT:;
#CREDIT:;
#BANNER:Thumbs Up banner.png;
#BACKGROUND:Thumbs Up bg.png;
#LYRICSPATH:;
#CDTITLE:;
#MUSIC:Thumbs Up.mp3;
#OFFSET:-3.780;
#SAMPLESTART:62.400;
#SAMPLELENGTH:15.000;
#SELECTABLE:YES;
#BPMS:0.000=130.000;
#STOPS:;
#BGCHANGES:0.000=Thumbs Up.avi=1.000=0=0=0,
99999=-nosongbg-=1.000=0=0=0 // don't automatically add -songbackground-
;

//---------------dance-single - ----------------
#NOTES:
     dance-single:
     :
     Hard:
     8:
     0.566,0.567,0.250,0.153,0.153:
1001
0000
0010
0100
0100
0001
0100
0020
,
0000
0030
1000
0100
0001
0100
2000
0000
,
3100
0000
0010
0100
0100
0001
0010
2000
,
0000
3000
0010
0100
0001
1000
0020
0000
,
1030
0000
0100
1000
0100
0010
0001
0010
,
0100
0000
0001
1000
0010
0001
0100
0010
,
1000
0000
0100
0010
0010
0100
0010
1000
,
1001
1001
1001
1001
,
0110
0000
0001
0000
0001
0000
0010
0000
1000
0000
0000
0000
0010
0100
0010
0000
,
1100
0000
0011
0000
0100
0100
0010
0010
,
1001
0000
0100
0000
0010
0000
0001
0000
0010
0000
0000
0000
0100
1000
0100
0000
,
0011
0000
1100
0010
0100
1000
0010
0100
,
1000
0000
0100
0010
0002
0000
2003
0000
,
3010
0100
0001
1000
0020
0000
0230
0000
,
0302
0000
0000
0000
0013
0000
1000
0000
0100
0001
0100
0000
0010
1000
0010
0000
,
0100
1000
0001
0010
0100
0000
1001
0000
,
2010
0000
0100
0100
3100
0010
0100
0001
,
0000
1000
0000
0010
0000
0100
0100
0001
,
2000
0000
0010
0010
3010
0100
0001
1000
,
0000
0010
0000
0100
0000
0001
0010
0100
,
1001
0000
0010
0100
0001
0010
1000
0010
,
0000
0100
0001
0100
0000
0010
0100
0100
,
0010
1000
0001
0100
0010
1000
0001
0100
,
0020
0000
0000
0130
,
1001
0000
0100
0000
0010
0000
0001
0000
1000
0010
0000
0010
0000
0100
0001
0000
,
0010
0000
0100
1000
0000
0000
0010
0000
0100
0000
0001
0010
0100
0000
0000
0000
,
1001
0000
0010
0000
0100
0000
0001
0000
1000
0010
0000
0010
0000
0100
0001
0000
,
0010
1000
0010
0000
0100
1000
0100
0000
0010
0100
0010
0000
0001
0000
0000
0000
,
1001
0000
1000
0000
0100
0000
0001
0000
0100
0010
0000
1000
0000
0001
0100
0000
,
0010
0000
1000
0001
0000
0001
0010
0000
0100
0000
0001
1000
0001
0000
0000
0000
,
0010
0100
0001
0100
0010
1000
1000
0010
,
0100
1000
0100
0010
0001
0000
0100
0000
,
0120
0000
0130
0001
0100
0010
1000
0000
,
0001
0010
0100
1000
0100
0010
0002
0000
,
0103
0010
1000
0010
0001
0100
0010
0001
,
1000
0100
0100
0100
0000
0010
0100
0000
,
0110
1000
0001
0100
0010
0001
0100
0000
,
1000
0100
0010
0001
0010
0100
2000
0000
,
3100
0010
0001
0100
0010
0001
1000
1000
,
0010
0100
0100
0100
0010
0000
1001
0000
,
2000
0000
3100
0000
0010
0001
0001
0010
,
0000
0000
0100
0000
0010
0000
0010
0000
1000
0001
0000
0000
1000
0010
0000
0000
,
0100
0000
0000
0001
0000
0000
1000
0000
0000
0000
0010
0000
0100
0000
0001
0000
,
1000
0000
0000
0010
0000
0000
0100
0000
0000
0000
0001
0000
0001
0000
0010
0000
,
0200
0000
0310
0000
1000
0100
0100
0001
,
0000
0000
0001
0000
0010
0000
0100
0000
1000
0001
0000
0000
1000
0010
0000
0000
,
0101
0000
0000
1000
0000
0000
0010
0000
1001
0000
0000
0010
0000
0000
0100
0000
,
0012
0000
0000
0013
,
1001
0000
0010
0000
0100
0000
0001
0000
1000
0010
1000
0000
0001
0000
1000
0000
,
0010
0000
1000
0001
0000
0000
0010
0000
1000
0001
0000
0000
0010
0000
0000
0000
,
1001
0000
0100
0000
1000
0000
0100
0000
0001
1000
0001
0000
0010
0000
0100
0000
,
0001
0000
1000
0010
0000
0000
0100
0000
0001
0100
0000
0000
0010
0000
0000
0000
,
1001
0000
0010
0000
0001
0000
1000
0000
0100
0010
0100
0000
0001
0000
1000
0000
,
1000
0000
0010
0100
0000
0000
1000
0000
0010
0100
0000
0000
0001
0000
0001
0000
,
1000
0010
0100
0001
0010
1000
0010
0001
,
0010
0010
0100
0100
0010
0000
1100
0000
,
0011
0010
0100
1000
0001
0010
0100
1000
,
0010
0100
0010
0100
0001
1000
0002
0000
,
1003
0100
0010
1000
0100
0010
0001
1000
,
0010
0100
0001
0001
0000
0010
0100
1000
,
1001
0010
0100
1000
0001
0010
0100
1000
,
0010
1000
0010
1000
0010
0001
0001
0000
,
0010
1000
0010
0100
0001
0001
1000
0010
,
0000
0100
0100
0001
1000
0000
0110
0000
,
1001
0000
0000
0000
;

//---------------dance-single - ----------------
#NOTES:
     dance-single:
     :
     Medium:
     5:
     0.378,0.361,0.177,0.097,0.000:
1000
0100
0010
1000
,
0001
0000
0100
0000
0001
1000
0002
0000
,
0013
0100
0010
1000
,
0100
0000
0001
0000
0100
0010
0200
0000
,
0310
1000
0100
1000
,
0010
0100
0001
0010
,
0001
0000
0000
0000
1000
1000
1000
0000
,
1001
0110
1001
0110
,
1000
0000
0001
0100
0100
0000
0010
0000
,
1100
0000
0011
0000
0100
0100
0010
0010
,
0100
0000
1000
0010
1000
0000
0100
0000
,
0001
0000
0100
0000
0010
1000
0010
0000
,
0100
0000
0001
1000
0001
0000
0001
0000
,
0010
0000
1000
0100
1000
0000
1000
0000
,
1002
0003
0010
0010
,
0100
0000
0001
0100
0001
0000
1000
0000
,
0020
0000
0130
0000
0001
0000
0100
0010
,
0000
1000
0000
0010
0000
0100
0001
0200
,
0000
0300
0010
0000
1000
0000
0010
0000
,
0100
0000
0100
0000
0001
0000
1000
0001
,
1000
0000
0100
0000
0010
0000
1000
0001
,
0000
0100
0000
0010
0000
0001
1000
0002
,
0000
0003
0010
0000
0100
0000
0010
0000
,
2000
0000
0000
3001
,
1001
0010
0100
0010
,
0001
0000
1000
0010
1000
0000
0010
0000
,
0110
1000
0100
0001
,
0100
0100
0100
0000
0010
0010
0010
0000
,
1001
0010
0001
0100
,
0010
0000
1000
0001
1000
0000
0010
0000
,
0110
1000
0100
0001
,
0010
0010
0010
0100
,
0110
0001
0010
0001
,
1000
0100
1000
0100
1000
0100
1000
0000
,
0010
0100
0010
1000
,
0001
0000
1000
0002
0000
0000
0013
0000
,
0110
1000
0100
0010
,
0001
0010
0001
0010
0001
0010
0001
0000
,
0010
0010
0100
0100
,
0010
1000
1000
1000
0010
0000
0110
0000
,
2000
0000
0000
3000
0100
0000
0010
0100
,
0000
0100
0000
0001
0100
0000
0110
0000
,
1000
0000
0001
0010
0001
0000
0010
0000
,
0100
0000
0010
1000
0010
0000
0100
0000
,
0002
0000
0000
0003
0010
0000
0100
0010
,
0000
1000
0000
0001
1000
0000
1001
0000
,
0010
0100
0001
1000
,
0020
0000
0000
0130
,
1001
0000
0100
0000
1000
0000
0010
0100
,
0001
0000
0010
0100
0000
0100
0010
0000
,
1000
0000
0001
0000
0100
0000
0010
1000
,
0010
0000
1000
0100
0000
0100
1000
0000
,
0110
0000
1000
0000
0100
0000
0001
1000
,
0001
0000
0100
0010
0000
0010
0100
0000
,
0001
0000
1000
0000
0010
0000
0100
0001
,
0000
1000
0000
0010
0100
0000
0010
0000
,
0110
1000
0100
0010
,
0100
0010
0100
0010
0100
0010
0100
0000
,
0001
0010
1000
0010
,
0001
0000
0100
0020
0000
0000
0130
0000
,
1001
0010
0100
0001
,
1000
0001
1000
0001
1000
0001
1000
0000
,
0100
0000
0010
0000
0100
0000
0010
0001
,
0000
0001
0010
0100
1000
0000
1001
0000
,
0110
0000
0000
0000
;

//---------------dance-single - ----------------
#NOTES:
     dance-single:
     :
     Easy:
     3:
     0.307,0.284,0.113,0.113,0.000: // measure 1
0010
0010
0100
0100
,  // measure 2
0001
1000
0001
0020
,  // measure 3
0000
0130
0001
0010
,  // measure 4
1000
0010
1000
0020
,  // measure 5
0000
0130
0001
0001
,  // measure 6
0010
0100
1000
1000
,  // measure 7
0010
0100
0001
1000
,  // measure 8
0010
0010
0010
0010
,  // measure 9
1001
0010
0010
0100
,  // measure 10
0001
0001
1000
1000
,  // measure 11
0110
1000
1000
0100
,  // measure 12
0010
0100
0001
1000
,  // measure 13
0010
0001
0100
0100
,  // measure 14
0010
1000
0100
0100
,  // measure 15
0020
0000
0130
0100
,  // measure 16
0001
0010
0100
1000
,  // measure 17
0002
0000
0013
0100
,  // measure 18
0010
1000
0001
0100
,  // measure 19
2000
0000
3010
0100
,  // measure 20
0010
0010
0100
0100
,  // measure 21
0002
0000
1003
0010
,  // measure 22
1000
0001
1000
0010
,  // measure 23
0100
1000
0100
0010
,  // measure 24
0200
0000
0000
0310
,  // measure 25
1001
0010
0100
0010
,  // measure 26
1000
0100
0001
0100
,  // measure 27
1001
0010
0100
0010
,  // measure 28
1000
1000
1000
0010
,  // measure 29
0110
1000
0100
0001
,  // measure 30
0010
0001
1000
0010
,  // measure 31
0100
0100
0010
0010
,  // measure 32
1000
0001
1000
1000
,  // measure 33
0010
0100
0001
1000
,  // measure 34
0020
0000
0100
0130
,  // measure 35
1000
0100
0001
0100
,  // measure 36
1000
0010
0010
0100
,  // measure 37
1001
0010
0100
0001
,  // measure 38
2000
0000
0100
3100
,  // measure 39
0010
0100
0010
0010
,  // measure 40
0001
1000
0001
0001
,  // measure 41
2000
0000
3000
0010
,  // measure 42
0010
0100
0001
0001
,  // measure 43
0100
0010
1000
0100
,  // measure 44
0001
0100
0010
1000
,  // measure 45
0020
0000
0030
0100
,  // measure 46
0001
0010
0001
0001
,  // measure 47
0100
0010
0100
0001
,  // measure 48
2000
0000
0000
3100
,  // measure 49
1001
0010
0001
0100
,  // measure 50
0010
1000
0010
0100
,  // measure 51
1001
0010
0100
0001
,  // measure 52
0010
0001
0100
0010
,  // measure 53
0110
1000
0100
0001
,  // measure 54
0001
0100
0010
1000
,  // measure 55
0010
0010
1000
1000
,  // measure 56
0100
0001
0100
0010
,  // measure 57
1001
0010
0001
0100
,  // measure 58
0020
0000
0100
0130
,  // measure 59
1001
0010
0001
1000
,  // measure 60
0100
0010
1000
0010
,  // measure 61
0110
1000
0001
1000
,  // measure 62
0200
0000
0010
0310
,  // measure 63
1000
0100
0010
0001
,  // measure 64
0100
0010
0100
0110
,  // measure 65
1001
0000
0000
0000
;
