#TITLE:Take Me Home;
#SUBTITLE:;
#ARTIST:CAMILA;
#TITLETRANSLIT:;
#SUBTITLETRANSLIT:;
#ARTISTTRANSLIT:;
#CREDIT:;
#BANNER:Take Me Home banner.png;
#BACKGROUND:Take Me Home bg.png;
#LYRICSPATH:;
#CDTITLE:;
#MUSIC:Take Me Home.mp3;
#OFFSET:-7.300;
#SAMPLESTART:65.320;
#SAMPLELENGTH:15.000;
#SELECTABLE:YES;
#BPMS:0.000=180.080;
#STOPS:;
#BGCHANGES:;

//---------------dance-single - ----------------
#NOTES:
     dance-single:
     :
     Hard:
     8:
     0.604,0.553,0.117,0.095,0.132:
1000
0001
0100
0010
0000
0010
0000
0100
,
1000
0001
0010
1000
0000
1000
0000
0100
,
0000
0010
0100
0001
1000
0001
0100
0010
,
0000
1000
0001
1000
0000
0010
0000
0100
,
0001
0100
1000
0100
0000
0010
0010
0000
,
0100
0001
0100
1000
0000
1000
0000
0010
,
0100
1000
0010
0100
1000
0010
0100
1000
,
0001
1000
0010
0100
,
0011
0000
0010
0100
0010
0000
1000
0000
,
1100
0000
0010
0100
0010
0000
0001
1000
,
0002
0000
0000
0010
0013
0000
0100
0000
,
0010
1000
0010
0100
0001
0100
0010
1000
,
0120
0000
0030
0001
0100
0000
1000
0000
,
0010
0000
1000
0001
0000
0001
0010
0100
,
1000
0100
0010
0100
1000
0100
0010
0001
,
0010
0000
0100
0010
0100
0000
1000
0001
,
1000
0000
1000
0000
0001
1000
0001
1000
,
0100
0000
0100
0010
0100
0000
0001
1000
,
0100
0000
1000
0010
0001
0000
0100
0010
,
1000
0000
0100
0000
0002
0000
0000
0013
,
0100
0000
1000
0000
0010
0000
0100
1000
,
0100
0000
0001
0100
0001
0000
0010
0000
,
0001
0100
0010
1000
0100
0010
0100
0010
,
0001
0000
0010
1000
1000
0000
0010
0000
,
0100
0000
0001
1000
1000
0000
0001
0000
,
0100
0000
1000
0010
1000
0001
1000
0000
,
0110
0000
1000
0010
0100
0000
0001
0100
,
0010
0000
0010
0010
0100
0000
1000
0000
,
1001
0000
0010
0001
0001
0000
0010
0100
,
1000
0000
0010
1000
1000
0000
0100
1000
,
0100
0000
0010
0100
0001
1000
0010
0000
,
0100
0000
0010
0001
1000
1000
0010
0100
,
0010
0000
1000
0010
0010
0000
0100
0001
,
1000
0000
0010
0100
0100
0000
0010
1000
,
0010
0000
0100
0001
0100
0000
0001
0010
,
0100
1000
0100
0010
0001
0000
0010
0010
,
0100
0000
0001
0000
0010
0000
1000
0000
0100
0000
0010
0000
,
0001
0000
1000
0000
0010
0000
0110
0000
0000
1000
0000
0000
,
0001
0000
1000
0000
0100
0000
1000
0000
0010
0000
0100
0000
,
0001
0000
0100
0000
0010
0000
1001
0000
0000
0100
0000
0000
,
0110
0000
0001
0100
0100
0000
0010
1000
,
0010
0000
0100
1000
1000
0000
0010
0100
,
0001
0100
0010
0010
,
2001
0000
0010
3010
,
0001
0000
0010
0100
0000
0100
1000
0100
,
0010
0000
0100
0001
0000
0001
0010
0100
,
1000
0100
0010
0010
0100
0001
1000
1000
,
0010
0100
0000
0100
0001
0000
0010
0000
,
1001
0000
0100
0010
0000
0010
0100
1000
,
0000
0100
0010
0001
0000
0100
0010
0001
,
0010
0000
1000
0001
0000
0001
1000
0000
,
0010
0000
0100
1000
0100
0010
0001
0100
,
0010
0000
1000
0000
0100
0000
0010
0000
0100
0000
0010
0000
,
0001
0000
0000
0000
0010
0000
0000
0000
0100
0000
0000
0000
1000
0000
0000
0000
0000
0000
0010
0000
0000
0100
0000
0000
,
0010
0000
0001
0000
0100
0000
0010
0000
1000
0000
0010
0000
,
0100
0000
0000
0000
1000
0000
0000
0000
0010
0000
0000
0000
0100
0000
0000
0000
0000
0000
0010
0000
0000
0001
0000
0000
,
0011
0000
0010
0100
1100
0000
0010
0100
,
0010
0000
1000
0001
1000
0000
0100
1000
,
0100
0010
0001
0010
0000
0010
0100
0010
,
1000
0100
0000
0100
0010
0001
0010
0100
,
0020
0000
0000
0130
0100
0000
1000
0000
,
0100
0000
0001
0010
0002
0000
0000
0013
,
0100
1000
0000
0000
0010
0000
0010
0000
,
0100
0000
1000
0000
0010
0100
1000
0100
,
0020
0000
0000
0031
0001
0000
0010
0000
,
0100
0000
0001
0010
0100
0000
0010
0100
,
1000
0100
0010
0001
0000
0001
0010
0100
,
1000
0100
0000
0010
0100
0100
0010
0100
,
0010
0000
0001
1000
0000
1000
0010
0000
,
0010
0100
0000
0100
0010
0001
0010
0100
,
0010
0000
1000
0001
0000
0001
0100
0000
,
0100
1000
0000
0100
0010
0100
0010
0001
,
0010
0000
0100
0000
0010
0100
1000
0200
,
0000
0300
0000
0000
0100
0001
1000
0002
,
0000
0003
0000
0000
1000
0001
1000
0020
,
0000
0030
0000
0100
0000
0100
0000
0010
,
0200
0000
0010
1000
,
0010
0000
0010
0310
,
0110
0000
0001
0010
0100
1000
0100
0010
,
0001
0000
0100
0010
0100
1000
0100
0010
,
0100
0000
0010
1000
0100
0100
0001
0001
,
0010
0100
1000
0100
0010
1000
0100
0010
,
0001
0000
0010
0001
0010
0100
1000
0100
,
0010
0000
0100
1000
0010
0100
0010
0001
,
0100
0000
0010
0100
1000
0100
0010
0000
,
0010
0000
0001
0010
1000
0010
0001
0010
,
0100
0000
0010
0000
0001
0000
0010
0000
0100
0000
1000
0000
,
0010
0000
0000
0000
0100
0000
0000
0000
0001
0000
0000
0000
0100
0000
0000
0000
0000
0000
0010
0000
0000
1000
0000
0000
,
0100
0000
0001
0000
0001
0000
0010
0000
0100
0000
0100
0000
,
1000
0000
0100
0000
0100
0000
0010
0000
0000
1001
0000
0000
,
0010
0000
0100
1000
0100
0010
0001
0100
,
0010
0000
1000
0001
0010
0100
1000
0010
,
0100
0010
0001
0010
0000
0100
1000
0100
,
0010
0100
0000
0100
1000
0100
0110
0000
,
2002
0000
3003
0000
;

//---------------dance-single - ----------------
#NOTES:
     dance-single:
     :
     Medium:
     6:
     0.461,0.482,0.095,0.146,0.000:
0110
0000
0000
1000
0000
1000
0000
0000
,
0011
0000
0000
0100
0000
0100
0000
0000
,
0011
0000
0000
0010
0000
0100
0000
1000
,
0000
0001
0000
0100
0000
1000
0000
0000
,
0110
0000
0000
0010
0000
0010
0000
0000
,
0101
0000
0000
0010
0000
0010
0000
0000
,
0010
0000
1000
0000
0100
0000
0001
0100
,
0001
0010
0010
0001
,
0100
0010
1000
0010
,
1000
0000
0100
1000
0100
0000
0010
0001
,
0020
0000
0100
0001
,
0130
0010
0010
0010
,
0110
0000
1000
0100
0010
0000
0001
0000
,
0100
0000
1000
0001
0010
0000
0001
0000
,
0010
0000
0100
0000
0010
0000
1000
0001
,
1000
0000
0010
0100
0010
0000
1000
0000
,
1000
0000
0100
0000
1000
0000
0010
0100
,
1000
0000
0010
0000
0001
0000
0100
0010
,
0100
0001
1000
0010
,
0100
0000
0010
0000
2000
0000
0000
0010
,
3010
0100
0001
1000
,
0010
0000
0100
0000
0001
0000
0010
1000
,
1000
0000
0010
0000
0100
0000
0001
0100
,
0001
0010
0001
0100
,
0100
0000
0010
1000
0010
0000
0100
0000
,
0100
0000
0010
0100
0010
0100
0010
0000
,
0002
0000
0100
0010
,
0203
0000
0010
0010
,
0320
0000
0030
1000
0001
0000
1000
0000
,
2000
0000
3000
0001
0100
0000
0010
0000
,
0100
0000
0100
0000
0001
0000
1000
0010
,
1000
0100
0010
1000
,
0020
0000
0030
0100
0001
0000
0010
0000
,
0200
0000
0300
0001
1000
0000
0010
0000
,
1000
0100
0010
0001
,
0010
0000
1000
0001
1000
0000
0010
0000
,
0001
0001
0010
0010
,
0100
0000
0010
1000
0010
0000
0100
0000
,
0010
1000
0100
1000
,
0010
0000
1000
0100
1000
0000
0010
0000
,
0110
0010
0011
0010
,
0110
0000
0010
0001
0010
0000
0100
0000
,
0010
1000
0010
0001
,
0200
0000
0310
0010
,
0101
0000
0010
1000
0000
1000
0010
0000
,
0100
0000
0010
0100
0000
0100
0010
0000
,
0001
0000
0010
0000
0100
0000
0010
0100
,
0010
1000
0001
0100
,
0010
0000
1000
0001
0000
0001
1000
0000
,
0010
0000
0100
0010
0000
0010
0100
0000
,
0001
0010
1000
0010
,
0001
0000
0010
0100
1000
0100
0010
0000
,
0010
0010
0100
0100
,
0001
0000
1000
0010
1000
0000
0010
0000
,
1000
1000
0001
0001
,
0100
0000
0010
0001
0010
0000
0010
0000
,
1000
0010
0100
0001
,
0200
0000
0310
0010
,
0001
0000
1000
0010
0000
0010
1000
0000
,
0100
0001
0000
0001
0100
0000
0010
0000
,
2000
0000
3100
1000
,
0200
0000
0010
0000
0010
0000
0000
0010
,
0310
0001
1000
0001
,
0010
0100
0010
0100
,
0002
0000
0013
0010
,
0200
0000
1000
0000
1000
0000
0000
1000
,
1300
0000
0010
0010
0000
0000
0100
0000
,
0001
0001
0000
0000
0010
0000
0100
0000
,
1000
0000
0010
0100
0000
0100
0001
0000
,
0010
0100
0000
0100
1000
0000
0100
0000
,
0010
0000
0100
0001
0000
0001
0100
0000
,
0010
1000
0000
1000
0010
0000
0010
0000
,
0100
0000
0010
0000
1000
0000
0001
0200
,
0000
0000
0000
0300
0010
0000
0001
0200
,
0000
0000
0000
0300
1000
0000
0010
0200
,
0000
0000
0000
0300
0001
0000
1000
0000
,
0010
0000
0010
1000
,
0002
0000
0100
0103
,
1010
0000
0100
0001
0100
0000
0010
0000
,
1000
0000
0010
0100
0010
0000
1000
0000
,
0001
0000
0010
0100
1000
0000
0010
0100
,
1000
0010
0010
0100
,
0001
0000
0010
0100
0010
0000
0001
0000
,
1000
0000
0100
1000
0100
0000
0010
0000
,
1000
0000
0001
0100
0000
0100
0001
0000
,
0010
0000
0100
0000
0010
0000
1000
0001
,
1000
0010
0100
0001
,
0100
0000
0010
0001
0000
0001
0010
0000
,
0100
0010
1000
0010
,
1000
0000
0010
1000
0000
1000
0010
0000
,
0110
0000
0001
0100
0001
0000
0010
0000
,
0100
0000
1000
0010
1000
0000
0010
0000
,
0100
0001
0100
0002
0000
0003
0010
1000
,
0010
2000
0000
3000
0010
0000
0010
0000
,
1001
0000
0000
0000
;

//---------------dance-single - ----------------
#NOTES:
     dance-single:
     :
     Easy:
     3:
     0.368,0.378,0.102,0.000,0.000: // measure 1
0010
0100
0010
0010
,  // measure 2
1000
0001
1000
1000
,  // measure 3
0100
0010
0001
0010
,  // measure 4
1000
0010
0100
0001
,  // measure 5
0100
1000
0100
0100
,  // measure 6
0010
0001
0010
0010
,  // measure 7
0001
0010
0100
1000
,  // measure 8
0001
0100
0010
1000
,  // measure 9
0010
0000
0010
0100
,  // measure 10
0001
0100
0010
1000
,  // measure 11
0010
0000
0010
0100
,  // measure 12
1000
0100
0010
0001
,  // measure 13
0110
0000
1000
0100
,  // measure 14
0010
0100
0010
0001
,  // measure 15
0010
0010
0001
0001
,  // measure 16
0010
0100
1000
0100
,  // measure 17
0110
0000
1000
0100
,  // measure 18
1000
0100
0010
0001
,  // measure 19
0100
0100
0010
0010
,  // measure 20
1000
0001
1000
0000
,  // measure 21
0001
0010
0100
0010
,  // measure 22
0100
1000
0100
0000
,  // measure 23
0010
0100
1000
0100
,  // measure 24
0010
0000
0100
0010
,  // measure 25
0100
0000
0001
1000
,  // measure 26
0001
0000
0010
0010
,  // measure 27
0100
0001
0100
1000
,  // measure 28
0100
0000
0100
0000
,  // measure 29
0010
0000
0100
0010
,  // measure 30
0010
0000
0001
0000
,  // measure 31
0010
0100
1000
0010
,  // measure 32
0100
0000
0001
0100
,  // measure 33
0001
0000
0010
1000
,  // measure 34
0010
0000
0010
0000
,  // measure 35
0100
0010
1000
0100
,  // measure 36
0010
0001
0010
0100
,  // measure 37
0010
0010
1000
1000
,  // measure 38
0100
0100
0010
0000
,  // measure 39
0001
0001
0100
0100
,  // measure 40
0001
0001
0010
0100
,  // measure 41
0010
1000
0010
0001
,  // measure 42
0100
0010
0001
1000
,  // measure 43
0010
0100
0010
1000
,  // measure 44
0010
0000
0100
0100
,  // measure 45
1001
0010
0001
0010
,  // measure 46
0100
0010
1000
0100
,  // measure 47
0001
1000
1000
0001
,  // measure 48
0001
0010
0100
0010
,  // measure 49
1001
0010
0001
0100
,  // measure 50
0010
1000
0100
0001
,  // measure 51
0100
0010
1000
0010
,  // measure 52
0100
0001
0001
0001
,  // measure 53
0010
0010
0100
0100
,  // measure 54
1000
0001
1000
0000
,  // measure 55
0010
0010
1000
1000
,  // measure 56
0100
0001
0100
0010
,  // measure 57
0010
1000
0001
0100
,  // measure 58
0100
0010
0001
0010
,  // measure 59
0100
0010
0010
0100
,  // measure 60
0100
1000
0100
0100
,  // measure 61
0011
0000
0010
0000
,  // measure 62
1100
0100
0100
0000
,  // measure 63
0110
0000
1000
0000
,  // measure 64
0100
0000
0100
0000
,  // measure 65
0110
0000
0001
0010
,  // measure 66
0011
0010
0010
0000
,  // measure 67
0100
1000
0100
0001
,  // measure 68
0100
0010
0100
0100
,  // measure 69
0010
0000
0100
0100
,  // measure 70
1000
0100
0010
0001
,  // measure 71
0100
0000
0010
0010
,  // measure 72
0001
0100
0010
1000
,  // measure 73
0010
0000
0100
0100
,  // measure 74
0010
0000
0001
0001
,  // measure 75
0100
0000
0010
0010
,  // measure 76
1000
0000
0010
1000
,  // measure 77
0010
0000
1000
0010
,  // measure 78
1000
0000
0010
0010
,  // measure 79
0101
0010
1000
0010
,  // measure 80
0100
1000
0010
0100
,  // measure 81
1010
0100
0001
0100
,  // measure 82
0010
1000
0010
0001
,  // measure 83
1001
0010
0100
1000
,  // measure 84
0010
0001
0100
0010
,  // measure 85
0110
1000
0100
0001
,  // measure 86
0100
1000
0010
0100
,  // measure 87
0001
0001
0010
0010
,  // measure 88
0001
0100
0001
0010
,  // measure 89
1000
1000
0010
0010
,  // measure 90
0100
1000
0100
0010
,  // measure 91
0100
0001
0100
0010
,  // measure 92
1000
0000
1000
0010
,  // measure 93
0001
0001
0001
0100
,  // measure 94
0100
0100
0010
0010
,  // measure 95
1001
0000
0000
0000
;
