#TITLE:TWIT;
#SUBTITLE:;
#ARTIST:HWASA;
#TITLETRANSLIT:;
#SUBTITLETRANSLIT:;
#ARTISTTRANSLIT:;
#CREDIT:;
#BANNER:TWIT banner.png;
#BACKGROUND:TWIT bg.png;
#LYRICSPATH:;
#CDTITLE:;
#MUSIC:TWIT.mp3;
#OFFSET:-7.500;
#SAMPLESTART:56.520;
#SAMPLELENGTH:15.000;
#SELECTABLE:YES;
#BPMS:0.000=135.900;
#STOPS:;
#BGCHANGES:;

//---------------dance-single - ----------------
#NOTES:
     dance-single:
     :
     Hard:
     8:
     0.542,0.520,0.203,0.128,0.188:
0020
0000
0130
1000
0200
0000
0301
0010
,
0002
0000
0013
0100
0020
0000
0031
0000
,
0110
0000
1000
0000
0100
0001
0100
0010
,
0000
0000
1000
0000
0100
0000
0001
0000
0100
1000
0000
0000
0010
0000
0100
0000
,
0110
0000
1000
0100
0001
0000
0010
0000
,
1000
0100
0000
0000
0100
0010
0000
0000
0010
0001
0000
0000
0001
0010
0000
0000
,
1100
0100
0010
0001
0010
0010
0000
0100
,
0011
0010
0100
0100
0001
1000
0010
0100
,
0110
0000
0001
0010
1000
0000
0010
0000
,
0001
0010
0000
0000
0010
0100
0000
0000
0100
1000
0000
0000
1000
0100
0000
0000
,
1010
0100
1000
0010
0100
0001
0000
0001
,
0010
0100
0010
1000
0000
0100
0100
0010
,
0100
0001
0200
0000
0310
0000
0010
1000
,
0101
0000
0110
0100
1000
0010
0100
1000
,
0010
0001
0020
0000
0130
0000
0100
0100
,
0001
0100
1000
0010
0001
0010
1000
0010
,
0100
1000
0100
0100
0010
0000
0100
0010
,
0100
0010
0000
0000
0001
1000
0000
0000
0020
0000
0000
0000
0130
0000
0000
0000
,
1000
0000
0100
0000
0100
0000
0001
0010
0001
0000
1000
0000
0010
0000
0010
0000
,
0100
0001
0000
0000
0100
0010
0000
0000
0100
0000
1000
0000
0010
0000
0001
0000
,
2000
0000
0000
3000
0000
0000
0010
0000
0001
0000
1000
0000
0010
0000
0000
0000
0000
0000
0100
0000
1000
0000
0010
0000
,
0100
0000
0000
0000
0000
0000
0001
0000
1000
0000
0100
0000
0010
0000
0000
0000
0000
0000
0100
0000
0000
0100
0000
0000
,
0010
0000
0000
0000
0000
0000
1000
0000
0000
0000
0000
0000
0010
0000
0000
0000
0100
0000
0000
0000
1000
0000
0000
0000
0100
0000
0000
0000
0000
0000
0000
0000
0000
0010
0000
0000
0000
0000
0000
0000
0000
0000
0100
0000
0000
0000
0001
0000
,
0000
1000
0000
0010
0000
0100
0000
1000
0000
0100
0000
0010
0000
0100
0000
0000
0000
0200
0000
0000
0000
0300
0000
0000
,
0010
0100
0001
0100
1000
0010
1000
1000
,
0100
0010
0100
0001
0010
0000
0010
0010
,
0100
1000
0100
0001
0010
0001
0100
0000
,
0010
0000
0000
0000
0000
0000
0000
0000
0010
0010
0000
0000
1000
0000
0100
0000
,
1001
0000
0010
0100
1000
0000
0010
0000
,
1000
0100
0000
0000
0010
0100
0000
0000
1000
0100
0000
0000
0001
0010
0000
0000
,
0100
0010
0010
1000
0101
0010
0000
0010
,
1100
0010
0100
0100
0001
0010
1000
0010
,
1001
0000
0010
0001
0100
0000
0010
0000
,
0001
0100
0000
0000
0010
1000
0000
0000
0100
1000
0000
0000
0010
0100
0000
0000
,
0010
1000
1000
0100
1000
1001
0000
0010
,
0010
0000
0100
0000
0001
0000
0110
0000
0000
0000
0100
0010
0100
0000
1000
0000
,
0001
0010
0100
1000
0001
0010
0200
0000
,
0000
0000
0310
0000
0001
1000
1000
0000
,
0010
0100
1000
0010
0100
1000
0100
0001
,
0010
0000
0100
0010
0010
1000
0010
0100
,
1000
0100
0010
0001
1000
0100
0020
0000
,
0000
0000
0130
0000
0001
1000
1000
0001
,
0010
1000
0010
0100
0010
1000
0001
0010
,
2000
0000
0100
0100
3010
0100
0001
1000
,
0200
0000
0310
0001
0020
0000
0130
1000
,
0200
0000
0310
0001
0000
0001
0010
0000
,
0100
0000
1000
0000
0100
0010
0001
0010
,
0100
0000
1000
0000
0010
0100
1000
0100
,
0110
0000
0010
0100
1100
0000
0001
0100
,
0101
0000
0010
1000
0000
1000
0010
0000
,
0110
0000
0001
0010
0100
1000
0100
0010
,
0001
0000
0000
0000
,
0000
0000
0000
0000
0000
0000
0000
0000
0100
0100
0000
0000
0010
0000
0100
0000
,
0110
0000
0001
1000
0010
0000
0100
0010
,
1000
0100
0000
0000
0010
0100
0000
0000
0001
0010
0000
0000
1000
0010
0000
0000
,
0100
0010
1000
1000
0100
0100
0001
0100
,
0110
0001
0110
0110
1000
0100
0001
0100
,
1001
0000
0010
0100
1000
0000
0010
0010
,
0100
0001
0000
0000
0001
0100
0000
0000
0010
1000
0000
0000
1000
0010
0000
0000
,
0100
1000
1000
0010
0110
0010
0001
1100
,
1100
0010
0100
0011
0010
0100
1000
0100
,
0010
0001
0010
0100
1000
0100
0020
0000
,
0000
0000
0130
0000
0001
0010
0100
1000
,
0100
0000
0010
0100
1000
0100
0010
0010
,
0100
1000
0100
0010
0001
0010
0100
0000
,
1000
0100
0010
0001
0010
0100
2000
0000
,
0000
0000
3010
0000
0100
0100
0010
0100
,
0010
0000
1000
0010
1000
0001
0010
0010
,
0000
0000
0000
0000
0000
0000
0000
0000
0100
0100
0000
0000
0010
0000
0100
0000
,
0010
0000
0000
0000
;

//---------------dance-single - ----------------
#NOTES:
     dance-single:
     :
     Medium:
     5:
     0.355,0.338,0.113,0.075,0.000:
0020
0130
0002
0013
,
2000
3100
0020
0130
,
1000
0000
0001
0000
0100
0000
0010
0100
,
0000
0000
1001
0010
,
1001
0010
0100
0010
,
0001
0010
0100
1000
,
0010
0000
0100
1000
0100
0000
0010
0000
,
0100
0000
0001
0010
0001
0000
0010
0100
,
0010
1000
0100
0001
,
1000
0100
0010
0001
,
0100
0000
0010
0001
0010
0000
0100
0000
,
0010
0000
1000
0010
1000
0000
0010
0000
,
0100
0010
0100
0000
0001
0000
0001
0000
,
0010
0000
0010
0000
0100
0010
0001
0000
,
0010
0100
1000
0000
0100
0000
1000
0000
,
0010
0000
0100
0000
1000
0100
1000
0100
,
1000
0000
0010
0100
0010
0000
0001
0000
,
0100
0010
0002
0013
,
0010
0000
0010
0000
0100
0010
0100
0000
,
0010
0000
1000
0100
0010
0000
0100
0000
,
0001
0000
0100
0010
0100
0000
0010
1000
,
0010
0000
0100
1000
0100
0000
0001
0000
,
0100
0000
0010
0001
0010
0000
0100
0000
,
0010
0100
1000
0100
0010
0000
0010
0000
,
0101
0010
0010
1000
,
0010
0100
1000
0100
,
0010
0000
0010
0000
0100
0010
0100
0010
,
0000
0000
0101
0010
,
1001
0010
0010
0100
,
0001
0010
0100
1000
,
0010
0000
0100
1000
0100
1000
0000
0010
,
0100
0000
0100
0010
0000
0000
0100
0000
,
1001
0010
0100
0010
,
1000
0100
0010
0001
,
0100
0000
0001
0010
0001
0010
0000
0100
,
0010
0000
0010
0100
0000
0010
0010
0000
,
1000
0100
1000
0020
,
0000
0000
0130
0000
0100
0010
0100
0000
,
0010
0000
1000
0000
0001
0000
0010
0001
,
0010
0100
0010
0010
,
1000
0001
0100
0020
,
0000
0000
0031
0000
0010
0100
0010
0000
,
1000
0000
0010
0000
0100
0000
1000
0010
,
0000
0010
0100
0100
,
1010
0000
0101
0000
,
0110
0000
0000
0101
0000
0000
0110
0000
,
0010
0000
1000
0000
0010
0100
0000
0100
,
0000
0000
0010
0100
,
0001
0000
0100
0010
0100
0000
0010
0000
,
1000
0001
0000
0001
1000
0000
0110
0000
,
0001
0000
0010
0000
0100
1000
0100
2000
,
0000
0000
0000
0000
0000
3000
0000
0000
,
0000
0000
1001
0010
,
1001
0000
0010
0100
0010
0000
0001
0000
,
0010
0100
0010
0100
,
0010
0000
1000
0010
1000
0010
0000
0100
,
0001
0000
0001
0100
0000
0010
0010
0000
,
1001
0000
0100
1000
0100
0000
0010
0000
,
0100
1000
0100
1000
,
0010
0000
0100
0001
0100
0001
0000
0010
,
0001
0000
0001
1000
0000
0010
0100
0000
,
0100
0010
1000
0020
,
0000
0000
0130
0000
0100
0010
0100
0000
,
0001
0000
0010
0000
0100
0000
0010
0100
,
1000
0000
0100
0000
1000
0000
0010
0100
,
0010
0001
1000
0200
,
0000
0000
1300
0000
0010
0100
0010
0000
,
0001
0000
0010
0000
0100
0000
0010
0100
,
0000
0000
0000
0000
0100
0000
0010
0100
,
0010
0000
0000
0000
;

//---------------dance-single - ----------------
#NOTES:
     dance-single:
     :
     Easy:
     3:
     0.297,0.286,0.068,0.121,0.000: // measure 1
0200
0300
0002
0003
,  // measure 2
0020
0030
2000
3100
,  // measure 3
0010
0100
0001
0100
,  // measure 4
0010
0000
0100
0010
,  // measure 5
1001
0010
0010
0100
,  // measure 6
0001
0010
0100
1000
,  // measure 7
0010
0100
1000
0100
,  // measure 8
0010
0100
0001
0010
,  // measure 9
1001
0010
0010
0100
,  // measure 10
1000
0100
0010
0001
,  // measure 11
0010
0100
0010
0001
,  // measure 12
0100
0010
1000
0010
,  // measure 13
0100
0100
0010
0010
,  // measure 14
1000
0010
0100
0001
,  // measure 15
0010
0010
1000
1000
,  // measure 16
0010
0100
1000
0100
,  // measure 17
0010
0100
1000
0010
,  // measure 18
0001
0001
0001
0010
,  // measure 19
0100
0010
0100
0010
,  // measure 20
1000
1000
0010
0100
,  // measure 21
0110
0001
0010
0100
,  // measure 22
0010
1000
0010
0100
,  // measure 23
0110
0001
0010
0001
,  // measure 24
1000
0100
1000
0010
,  // measure 25
1100
0100
0010
0001
,  // measure 26
0010
0100
2000
3000
,  // measure 27
0010
0010
0100
0010
,  // measure 28
0100
0000
0100
0010
,  // measure 29
1001
0010
0010
0100
,  // measure 30
0001
0010
0100
1000
,  // measure 31
0010
0100
0001
0010
,  // measure 32
1000
0010
0100
1000
,  // measure 33
0110
1000
1000
0010
,  // measure 34
1000
0100
0010
0001
,  // measure 35
0010
0100
0001
0010
,  // measure 36
0001
1000
0010
0100
,  // measure 37
0010
0010
0100
0020
,  // measure 38
0030
0100
0010
0010
,  // measure 39
1000
0100
0001
0100
,  // measure 40
1000
0010
0100
1000
,  // measure 41
0100
0100
0010
0200
,  // measure 42
0300
0010
0001
0010
,  // measure 43
0100
0010
0100
2000
,  // measure 44
3000
0000
0010
0100
,  // measure 45
0020
0000
0032
0000
,  // measure 46
0023
0000
0130
0100
,  // measure 47
0010
0000
1000
0100
,  // measure 48
0010
0000
0100
0100
,  // measure 49
0002
0000
2003
0000
,  // measure 50
3020
0000
0130
0001
,  // measure 51
0100
0000
0010
0010
,  // measure 52
0200
0000
0000
0300
,  // measure 53
0000
0000
0100
0010
,  // measure 54
1001
0010
0010
0100
,  // measure 55
0001
0010
0100
1000
,  // measure 56
0010
1000
0010
0100
,  // measure 57
0001
0100
0010
1000
,  // measure 58
0110
0001
0001
0010
,  // measure 59
1000
0100
0010
0001
,  // measure 60
0010
0100
0001
0100
,  // measure 61
0010
1000
0010
0100
,  // measure 62
1000
1000
0010
0010
,  // measure 63
0100
0010
0001
0010
,  // measure 64
0100
0001
0100
0010
,  // measure 65
0200
0000
0310
1000
,  // measure 66
0010
0100
1000
0010
,  // measure 67
0100
0001
0010
1000
,  // measure 68
0010
0100
1000
0100
,  // measure 69
0010
0000
0010
0010
,  // measure 70
0010
0000
0000
0000
;
