#TITLE:TOUCH;
#SUBTITLE:;
#ARTIST:SORI;
#TITLETRANSLIT:;
#SUBTITLETRANSLIT:;
#ARTISTTRANSLIT:;
#CREDIT:;
#BANNER:TOUCH banner.png;
#BACKGROUND:TOUCH bg.png;
#LYRICSPATH:;
#CDTITLE:;
#MUSIC:TOUCH.mp3;
#OFFSET:-7.360;
#SAMPLESTART:35.860;
#SAMPLELENGTH:15.000;
#SELECTABLE:YES;
#BPMS:0.000=135.000;
#STOPS:190.000=0.460
;
#BGCHANGES:;

//---------------dance-single - ----------------
#NOTES:
     dance-single:
     :
     Hard:
     8:
     0.603,0.640,0.546,0.273,0.120:
1001
0000
0010
0100
0100
0000
0001
0010
,
1100
0000
0100
1000
0100
0010
0100
0001
,
0110
0000
0010
0001
0010
0100
1000
0100
,
0011
0000
0010
0100
0001
0010
1000
0010
,
0110
0000
1000
0100
1000
0100
0010
0001
,
0100
0000
0010
0100
0001
0100
0010
1000
,
0010
0000
0100
1000
0100
0010
0100
0001
,
0110
0000
0100
1000
0100
0010
0110
0000
,
0002
0023
2030
3020
,
0230
0302
0023
2030
,
3002
0000
0003
0000
0010
0100
0000
0100
0000
0000
0001
0000
1010
0000
0000
0000
,
0100
0000
0000
0000
1000
0010
0000
0010
0000
0000
0100
0000
0011
0000
0000
0000
,
2000
3020
0230
0302
,
2003
3002
0023
0230
,
1300
0010
0100
0001
0100
0010
1000
0010
,
1100
0100
0110
0001
0110
1100
0011
0110
,
1001
0100
1001
0000
0100
0000
0001
0010
,
0100
0000
0001
1000
0000
1001
1001
0000
,
0110
0001
0110
0000
1000
0000
0100
1000
,
0100
0000
0010
0100
0001
0010
1000
0010
,
0101
0100
1100
0000
0010
0000
0100
0010
,
0100
0000
0001
1000
0000
0011
0011
0000
,
1100
0100
0011
0000
0010
0000
0100
0010
,
0100
0000
0001
0000
1000
0100
0010
0001
,
0200
0000
0010
0000
1000
0000
0001
0010
,
0310
0000
0110
0000
1001
0010
0100
1000
,
0002
0000
0010
0000
0100
0000
1000
0100
,
0103
0010
0100
0000
0001
1000
0001
0000
0010
0100
1000
0000
0100
0010
0001
0000
,
2000
0000
0100
0000
0010
0000
0001
0010
,
3010
0000
0101
0000
0010
1000
0100
0010
,
0101
0000
0010
1100
0000
0010
0100
0010
,
1000
0001
1000
0000
0100
0010
0100
0000
0001
0010
0001
0000
0010
0000
1001
0000
,
2000
0000
0000
0010
3100
0001
0100
0000
,
0002
0000
0000
0010
0103
1000
0100
0000
,
0020
0000
0000
0001
0130
0001
0100
0000
,
0010
1000
0000
0000
0100
1000
0000
0000
0100
0010
0000
0000
0110
0000
0000
0000
,
0002
0000
0010
0103
2000
0000
0000
0100
,
3100
0010
0100
1000
0001
0000
0010
0100
,
0101
0010
0101
0000
0010
0000
1000
0010
,
0100
0001
0000
0000
0100
0010
0000
0000
0100
1000
0000
0000
0110
0000
0000
0000
,
0001
0000
0010
0000
0100
0010
0100
0000
0010
0000
1000
0000
0110
0000
2100
0000
,
3010
0000
0100
0000
0001
0000
0100
0010
0100
0000
0010
0000
1001
0000
1001
0000
,
0100
0000
0010
0000
1000
0001
0010
0000
0100
0000
0001
0000
0100
0000
0010
0000
,
1000
0001
0100
1000
0110
0000
0011
0000
,
1010
0000
0100
0000
0001
0100
1000
0000
0010
0000
0100
0000
1010
0000
0201
0000
,
0310
0000
0100
0000
0001
0000
1000
0010
1000
0000
0100
0000
0011
0000
0011
0000
,
0100
0010
0010
0100
0001
1000
0010
0100
,
0001
0011
0010
0110
0100
0000
1001
0100
,
1001
0000
0010
0100
1000
0100
0010
1100
,
0000
0110
0000
0000
0011
0000
0010
0000
0010
0000
0000
0000
0101
0000
0010
0000
,
1010
0000
0100
0001
0100
0010
1000
0010
,
0010
0100
0100
0001
0010
0100
1100
0100
,
0110
0000
1000
0001
0100
0100
0001
0020
,
0130
2000
3100
0110
0110
0000
1100
0010
,
1100
0000
0010
0000
0100
0001
0100
0100
,
0010
1000
0001
0100
0010
0100
0002
0000
,
0010
0000
0100
0000
1000
0100
0103
0000
,
0110
0000
1000
0001
0100
1000
0020
0000
,
0100
0000
0000
0000
0001
0000
0000
0000
0100
0000
1000
0000
1030
0001
1000
0000
,
0100
0010
0100
0000
0001
0010
0100
0000
0010
0100
1000
0000
0200
0000
0000
0000
,
0010
0000
1000
0000
0010
0001
0301
0000
,
0101
0000
0010
0100
0100
0010
1010
0000
,
0100
0000
0101
0000
0000
0000
0010
0000
0100
0000
1000
0000
0001
0010
0001
0000
,
0010
0100
0010
0000
0100
1000
0100
0000
0010
0000
0220
0000
0330
0000
0000
0000
;

//---------------dance-single - ----------------
#NOTES:
     dance-single:
     :
     Medium:
     6:
     0.389,0.433,0.056,0.257,0.004:
0010
0100
0001
0001
,
0010
0000
1000
0000
0001
0001
0010
0100
,
0010
0100
1000
0100
,
0010
0000
1000
0000
0010
0100
0010
0100
,
0010
0001
0010
1000
,
0010
0000
0100
0000
1000
0100
0010
0001
,
0010
0100
0010
0001
,
1001
0000
0010
0000
0100
0010
0100
0000
,
0020
0230
0302
2003
,
3020
0230
2300
3020
,
0130
0000
1000
0000
0010
0010
0010
0000
,
0100
0000
0001
0000
1000
1000
1000
0000
,
0002
0203
0320
2030
,
3002
0203
2300
3020
,
0130
0001
0100
1000
,
0001
0001
1000
1000
0010
0010
0100
0100
,
0001
1000
0001
0000
0010
0000
0100
0020
,
0000
0000
0130
0100
0000
0001
0001
0000
,
0010
0100
0010
0000
1000
0000
0001
0200
,
0000
0000
0000
0300
0010
0000
0010
0000
,
1000
0100
1000
0000
0010
0000
0100
0002
,
0000
0000
1003
1000
0000
0010
0010
0000
,
0001
0010
0001
0000
1000
0000
0010
0200
,
0000
0300
0010
1000
,
0010
0000
0010
0000
0100
0000
0001
1000
,
0001
0010
0100
1000
,
0010
0000
0100
0000
1000
0000
0010
0100
,
0010
0010
0001
0100
,
0010
0000
1000
0000
0001
0000
0100
0010
,
0100
0000
1000
0000
0010
0000
0100
0001
,
0100
0000
0000
0010
0000
1000
0100
0010
,
0002
0010
0010
0013
,
0200
0000
0310
0010
,
0002
0000
0013
0010
,
2000
0000
3100
0100
,
0010
0110
0100
0100
,
0001
0000
1000
0020
0000
0000
0000
0130
,
0100
0000
0001
0000
1000
0000
0010
0100
,
0010
1000
0100
0001
,
1100
0110
0011
0110
,
0010
0000
1000
1000
1000
0000
0010
0000
,
0100
0000
0001
0010
0000
0010
0100
0000
,
0010
0000
0100
0001
0001
0000
0010
0000
,
0100
0010
0001
0010
0100
0000
0100
0000
,
0010
0000
0100
0100
0100
0000
0010
1000
,
0000
1000
0010
0000
0100
0001
0001
0000
,
0010
0100
0010
1000
,
0010
0010
0100
0100
0010
0000
0100
0001
,
0100
0000
0010
0000
1000
0020
0000
0100
,
0000
0100
0000
0000
0130
0000
0000
0000
0001
0000
0000
0000
0010
0000
1000
0000
,
0010
0000
0100
0000
0001
0200
0000
0000
,
0310
0000
0001
0010
0001
0000
0100
0010
,
0100
0000
0010
0000
1000
0002
0000
0010
,
0000
0010
0013
0000
0100
0000
1000
0001
,
1000
0000
0010
0000
0100
1000
0100
0000
,
0010
0000
0100
0001
0100
0001
0100
0000
,
0010
0001
0100
0020
,
1030
0000
0100
1000
0100
1000
0100
0000
,
0010
0100
0002
0013
,
0100
0000
0010
1000
0010
1000
0010
0000
,
0100
0001
0100
0020
,
0130
0000
0001
0000
0010
0010
0010
0000
,
0000
0010
0000
1000
0001
1000
0002
0000
,
0000
0013
0110
0000
;

//---------------dance-single - ----------------
#NOTES:
     dance-single:
     :
     Easy:
     4:
     0.313,0.357,0.153,0.104,0.000: // measure 1
1000
0100
0010
0010
,  // measure 2
0100
0001
0100
0100
,  // measure 3
0001
1000
0010
0010
,  // measure 4
1000
0100
0001
0001
,  // measure 5
0100
0010
0100
0100
,  // measure 6
0010
1000
0001
0001
,  // measure 7
0010
0100
1000
0100
,  // measure 8
0010
0001
0100
0010
,  // measure 9
1000
0100
0010
0001
,  // measure 10
1000
0100
0010
0001
,  // measure 11
0010
0001
0010
0010
,  // measure 12
0100
0001
1000
1000
,  // measure 13
0001
0010
0100
1000
,  // measure 14
0001
0010
0100
1000
,  // measure 15
0010
0100
0001
1000
,  // measure 16
0110
0110
0110
0110
,  // measure 17
1001
0000
0010
0000
1000
0000
0010
0010
,  // measure 18
0000
0100
0001
0100
,  // measure 19
1001
0000
0010
0000
0001
0000
1000
1000
,  // measure 20
0000
0010
0100
0001
,  // measure 21
0110
0000
1000
0000
0100
0000
0010
0010
,  // measure 22
0000
0100
0001
1000
,  // measure 23
0110
0000
0001
0000
0010
0000
0100
0100
,  // measure 24
0000
0010
1000
0100
,  // measure 25
0001
0200
0000
0010
,  // measure 26
0310
1000
0100
0001
,  // measure 27
0100
0002
0000
0010
,  // measure 28
0013
0010
0010
0010
,  // measure 29
1000
0020
0000
0100
,  // measure 30
0130
1000
0100
0001
,  // measure 31
1000
0000
0000
0010
0000
0000
0100
0000
,  // measure 32
0020
0000
0130
0100
,  // measure 33
0002
0000
0013
0010
,  // measure 34
0200
0000
0310
0010
,  // measure 35
2000
0000
3100
0100
,  // measure 36
0010
0100
0001
0100
,  // measure 37
0010
0000
0220
0330
,  // measure 38
0001
1000
0010
0100
,  // measure 39
1000
1000
0010
0100
,  // measure 40
0001
0010
0100
1000
,  // measure 41
0110
0001
0010
0001
,  // measure 42
0100
1000
0100
0100
,  // measure 43
0010
1000
0010
0100
,  // measure 44
1000
0100
0010
0001
,  // measure 45
0110
1000
0100
1000
,  // measure 46
0010
0100
0010
0010
,  // measure 47
1000
0001
0100
0010
,  // measure 48
0110
0110
0110
1001
,  // measure 49
0010
0000
0001
0000
0100
0100
0000
0000
,  // measure 50
0010
0110
0010
1001
,  // measure 51
1000
0000
0010
0000
0100
0100
0000
0000
,  // measure 52
0010
0100
0001
0110
,  // measure 53
1000
0000
0010
0000
0100
0100
0000
0000
,  // measure 54
0010
0010
0001
0110
,  // measure 55
0001
0000
0100
0000
0010
0010
0000
0100
,  // measure 56
0100
0010
1000
0100
,  // measure 57
0020
0000
0100
0130
,  // measure 58
1000
0010
0100
0010
,  // measure 59
0002
0000
0010
0013
,  // measure 60
0010
0010
0010
1000
,  // measure 61
0200
0000
1000
1300
,  // measure 62
0010
0100
0001
0100
,  // measure 63
0000
0100
0000
0000
0010
0000
0200
0000
,  // measure 64
0000
0310
0010
0000
;
