#TITLE:Sting;
#SUBTITLE:;
#ARTIST:Stellar;
#TITLETRANSLIT:;
#SUBTITLETRANSLIT:;
#ARTISTTRANSLIT:;
#CREDIT:;
#BANNER:Sting banner.png;
#BACKGROUND:Sting bg.png;
#LYRICSPATH:;
#CDTITLE:;
#MUSIC:Sting.mp3;
#OFFSET:-3.060;
#SAMPLESTART:57.060;
#SAMPLELENGTH:15.000;
#SELECTABLE:YES;
#BPMS:0.000=105.020;
#STOPS:164.000=0.260
,164.500=0.160
,164.750=0.260
,165.250=0.160
,165.500=0.300
;
#BGCHANGES:;

//---------------dance-single - Copied from----------------
#NOTES:
     dance-single:
     Copied from:
     Challenge:
     8:
     0.541,0.481,0.204,0.211,0.495:
0100
0000
0000
0010
0000
0000
1000
0000
0100
0001
0000
0010
0000
0000
1000
0000
0000
0010
0100
0000
0000
0100
0000
0000
,
1001
0000
0000
0000
0000
0010
0100
0000
1000
0100
0000
0001
0000
0000
0100
0000
0000
0010
1000
0000
0000
0010
0000
0000
,
0100
0000
0000
0010
0000
0000
0000
0000
0001
0010
0000
0100
0000
0000
1000
0000
0000
0100
0000
0000
0010
0000
0000
0001
,
0010
0000
0100
0000
1000
0000
0010
0010
,
1001
0000
0000
0100
0000
0000
0010
0000
1000
0100
0000
0001
0000
0000
0010
0000
0000
0100
0010
0000
0000
1000
0000
0000
,
0101
0000
0000
0000
0000
0010
1000
0000
1000
0010
0000
0100
0000
0000
0001
0000
0000
0100
0010
0000
0000
1000
0000
0000
,
0010
0000
0000
0100
0000
0000
0001
0000
0100
1000
0000
0100
0000
0000
0010
0000
0000
0001
0000
0000
0010
0000
0000
0000
,
1000
0000
0100
0010
0000
0010
0001
0000
0001
0010
0000
0010
0100
0000
0000
1000
0000
0000
0001
0000
0000
0100
0000
0000
,
0010
0000
2000
0000
0000
3000
0100
0010
0000
0010
0000
0000
0001
0000
0100
0000
,
0010
0000
2000
0000
0000
3000
0001
0010
0000
0010
0000
0100
1000
0000
0100
0000
,
0100
0000
0000
0010
1000
0000
1000
0010
0000
0010
0000
0100
0001
0000
0001
0200
,
0000
0000
0300
0000
0010
0000
1000
0001
0000
0010
0000
0100
1000
0000
0010
0000
,
0100
0000
0020
0000
0030
0000
0100
0001
0000
0001
0000
0000
1000
0000
0010
0000
,
0100
0000
0002
0000
0000
0003
0100
0010
0000
0010
0000
2000
0000
0000
3000
0000
,
0010
0000
0100
0000
0000
0001
0000
0000
0001
0000
0000
0000
0100
0000
0010
0000
0000
1000
0000
0000
1000
0000
0000
0000
,
0011
0110
1100
0110
1001
0100
0000
0010
,
1001
0000
0000
0000
0100
0010
0001
0000
0010
0000
1000
0100
1000
0000
0010
0100
,
0000
0000
0000
0001
0000
0010
0000
0000
0000
0010
0000
0100
0000
0000
0000
0100
0000
0000
1000
0000
0000
0100
0000
0000
,
0010
0000
0000
1000
0000
0000
0001
0000
0000
0100
0000
0010
0000
0000
0000
0010
0000
0200
0000
0000
0300
0001
0000
0000
,
0010
0000
0000
0100
0000
1000
0000
0000
0100
0010
0000
0001
0010
0000
0100
1000
0000
0100
0010
0000
0000
0001
0000
0001
,
0100
0010
0100
0000
1000
0001
1000
0000
0010
0000
0100
0002
0000
0000
0003
0000
,
0010
0000
0000
0100
0000
0000
0010
0000
0000
0000
0000
0000
0001
0000
0000
1000
0000
0000
0001
0000
0000
0000
0000
0000
0100
0000
0000
0000
0000
0000
0010
0000
0000
0000
1000
0000
0000
0000
0000
0000
1000
0000
0000
0000
0000
0000
0020
0000
,
0000
0000
0000
0000
0130
0001
0100
0010
0100
0000
1000
0020
0000
0030
0100
0010
,
0100
0000
0000
0000
0000
0000
0100
0000
0000
0001
0000
0000
0000
0000
0000
0001
0000
0010
0100
0000
0000
1000
0000
0010
,
0100
0000
0000
0200
0000
0000
0000
0000
0000
0310
0000
0000
0000
0000
0000
0010
0000
1000
0100
0000
0000
0010
0000
1000
,
0010
0000
0000
0020
0000
0000
0000
0000
0000
0130
0000
0000
0000
0000
0000
0001
0000
1000
0010
0000
0000
0100
0000
0001
,
1000
2000
0000
3100
0000
0010
0000
0100
,
0010
0000
0000
0000
0000
0000
0001
0000
0000
0010
0000
0000
0000
0000
0000
0000
0000
0000
0100
0000
0000
0000
0000
0000
0010
0000
0000
0000
0000
0000
1000
0000
0000
0000
0100
0000
0010
0000
0000
0000
0000
0000
0100
0000
0000
0000
0010
0000
,
0001
0000
0002
0000
0000
0000
0013
0000
0000
0000
0100
0010
0100
0000
0001
1000
,
0010
0000
0020
0000
0000
0000
0130
0000
0000
0000
0001
0010
0100
0000
0010
0100
,
1000
2000
0000
3100
0000
0010
0010
1000
,
0001
0000
0100
0000
0010
0000
1000
0001
1000
0000
0010
0100
0010
0000
0000
0000
,
1001
0000
0010
0100
0000
0000
0010
0000
1001
0000
0100
0010
0000
0000
1000
0000
,
1000
0000
0001
0010
0000
0000
0010
0100
0000
0000
0100
1000
0000
0000
0010
0000
,
1100
0000
0010
0001
0000
0000
0010
0000
0011
0000
0100
1000
0000
0000
0100
0000
,
1000
0000
1000
0100
0000
0000
0100
0010
0000
0000
0010
0001
0000
0000
0100
0000
,
2001
0000
3000
0000
0010
0100
0010
0000
1000
0000
0000
0100
0010
0000
0010
0000
,
1002
0000
0003
0000
0100
0010
0100
0000
0001
0000
0100
0000
0010
1000
0000
0000
,
0100
0000
0000
0000
0001
0010
0100
1000
0000
0000
0100
0000
0010
0000
0100
0000
,
0011
0000
0000
0000
1000
0010
0000
0010
0000
0000
0100
0000
0001
0000
0100
0000
,
0020
0100
1000
0130
,
0010
0000
0100
0100
0000
0001
0001
0000
0100
0000
0000
0000
1000
0000
0100
0000
,
0000
0000
0100
0001
0100
0000
0010
1000
0010
0000
0100
0000
0000
0000
0001
0000
,
0000
0000
0100
0010
0100
0000
1000
0001
1000
0000
0010
0000
0000
0000
0100
0000
,
0000
0001
0000
1000
1100
0100
0110
0010
,
0011
0000
0000
1000
0000
0100
0010
0000
0000
0010
0000
0001
0110
0000
0000
0020
0000
0000
0000
0000
0000
0130
0000
0000
,
0000
0000
1000
0100
0010
0000
0001
0010
1100
0000
0200
0000
0000
0000
0310
0000
,
0000
0000
1000
0010
0001
0000
1000
0100
0011
0000
0002
0000
0000
0000
0013
0000
,
0000
0100
0100
0010
1000
0100
0001
0001
,
0000
1000
1000
0000
0110
1001
0020
0000
,
0130
0000
1000
0000
0001
0000
0100
0020
0000
0000
0100
0000
0130
0000
0001
0000
,
0010
0100
1000
0000
1001
1001
0010
0010
,
0100
0000
0010
0000
1000
0000
0001
0000
2000
0000
0000
3100
0010
0000
0020
0000
,
0000
0030
0100
0001
0100
0000
0010
0000
0010
0000
1000
0000
1001
0000
0000
0000
,
0100
0000
0010
0000
1000
0000
0001
0200
0000
0000
0010
0300
0010
0000
0001
1000
,
0001
0000
0000
0100
0000
0000
0001
0000
0010
0000
0100
0020
0000
0000
0130
0000
,
0000
0000
1000
0000
0100
0000
0010
0000
0001
0000
0010
0100
0010
0000
2000
0000
,
0000
0000
3100
0010
0000
0000
0000
0000
1001
0000
0000
0000
0000
0000
0000
0000
;

//---------------dance-single - ----------------
#NOTES:
     dance-single:
     :
     Hard:
     7:
     0.429,0.439,0.298,0.087,0.018:
1010
0000
0100
0000
0001
0010
0100
1000
,
0101
0000
0010
0000
0100
1000
0010
0100
,
0110
0000
1000
0000
0100
0010
0001
0010
,
0100
0000
0010
0000
0100
0000
0011
0011
,
0010
0110
1000
0100
0010
0100
0001
0000
,
0010
1000
0100
1000
0100
0010
0100
0000
,
0010
0001
0100
0010
1000
0100
0010
0000
,
0100
0100
0001
0001
0010
0100
1000
0100
,
0010
0010
0000
0100
1000
0100
0010
0010
,
0100
0001
0000
0001
0010
0100
1000
0010
,
0010
0000
0100
1000
0100
0010
0100
0010
,
0001
0000
0100
0000
0010
0100
0001
0010
,
1000
1000
0000
0010
0100
0100
0010
0100
,
0001
0100
0010
0100
1000
0100
0010
0000
,
0001
0010
0101
0101
0010
1000
0110
0110
,
1000
0100
0010
0001
0020
0000
0130
0000
,
1001
0000
0100
0010
0010
0100
1000
0001
,
0000
0010
0000
0100
0000
0001
1000
0010
,
0100
1000
0100
0010
0000
0100
0000
0001
,
0010
1000
0010
0001
0010
1000
0100
1000
,
0010
0010
0100
0100
0001
0010
0100
0000
,
1000
1000
0001
0001
0100
1000
0100
0010
,
0200
0000
0301
0001
0010
0100
0010
0000
,
0110
0000
1100
1100
0000
0011
0011
0000
,
0210
0000
1300
0000
0100
1000
0100
0010
,
1002
0000
0013
0000
0100
1000
0010
0100
,
0201
0000
0310
0000
0001
0000
0100
1000
,
0100
1000
0010
0000
0100
0010
0001
0010
,
0100
0100
0000
0001
0000
1000
0010
0100
,
0001
0100
0000
1000
0000
0010
0100
1000
,
0100
0010
0000
0010
0000
0100
0000
0001
,
0010
0100
1000
0010
0100
0100
0010
0000
,
1100
0100
0000
0010
0101
0100
0000
0010
,
0001
0010
0000
0100
1000
0100
0000
0010
,
1010
0100
0000
0010
0101
1000
0000
0010
,
0100
0010
0000
1000
0001
1000
0000
0010
,
0110
0001
0110
1000
,
0011
0000
1000
0000
0100
1000
1000
0000
,
0100
0000
0010
0001
0100
0010
1000
0010
,
0100
0000
0010
1000
0100
1000
0100
0010
,
0100
0001
1000
0010
,
0100
0000
0001
0001
0000
1000
1000
0000
0110
0000
0000
0000
0100
0000
0000
0000
,
1000
0010
0110
0001
,
0010
1000
0101
0010
,
0100
0000
1000
0000
0001
0001
0010
0010
,
0100
1000
0100
0010
1100
0200
0000
0310
,
0000
0001
0010
0100
0101
0020
0000
0130
,
0000
1000
0010
0100
1001
0002
0000
0013
,
0000
0100
0000
0010
1000
0100
0010
0001
,
0100
0010
0100
0000
0011
0110
1100
0000
,
0010
0000
0100
0000
1000
0000
0100
0002
0000
0000
0003
0000
1000
0000
0010
0000
,
0100
0010
0010
0000
0101
1010
0101
0000
,
0010
0100
1000
0100
0020
0000
1030
2000
,
0000
3001
0010
0001
0100
0100
0102
0000
,
0013
0000
1000
0000
0010
0000
0100
0001
0000
0000
0010
0000
1000
0000
0010
1000
,
0000
0100
0100
0000
0010
0100
1010
0000
,
0100
1000
0010
0001
0100
0000
0010
0100
,
0000
0100
0010
0000
1001
0000
0000
0000
;

//---------------dance-single - ----------------
#NOTES:
     dance-single:
     :
     Medium:
     5:
     0.299,0.272,0.073,0.015,0.000:
1001
0000
0010
0000
0100
0000
0001
0010
,
0001
0000
0100
0000
0010
0000
1000
0010
,
1000
0000
0010
0000
0100
0000
0001
0010
,
0001
0000
0010
0000
0100
0000
1000
1000
,
0100
0010
0100
0000
0001
0000
1000
0000
,
0001
0100
0001
0000
0010
0000
1000
0000
,
0100
1000
0100
0000
0010
0000
0100
0000
,
0010
0010
0100
0100
0010
0000
1000
0000
,
0001
0001
0000
1000
1000
0000
0010
0000
,
0100
0100
0000
0001
0001
0000
0100
0000
,
0010
1000
0100
1000
,
0020
0030
0100
0100
,
0001
0001
0000
0010
0010
0000
0100
0000
,
0010
0010
0000
1000
1000
0000
0010
0000
,
0100
1000
0001
0010
,
1000
0100
1000
0100
1000
0000
0010
0000
,
1001
0010
0100
0001
,
1000
0100
0000
0010
0000
0100
0000
0001
,
0100
0010
1000
0001
,
1000
0100
1000
0000
0001
0010
0001
0000
,
0100
0000
0100
0000
0010
0100
0010
0000
,
0001
0000
0001
0000
1000
0100
1000
0000
,
0010
0100
1000
0001
,
0110
0000
0100
0100
0000
0010
0010
0000
,
1100
0000
0100
0000
0010
0000
0001
0010
,
0100
0000
0001
0000
0100
0000
0001
1000
,
0001
0100
1000
0010
,
0100
0000
0100
0000
0010
0100
0010
0000
,
0001
0001
0000
1000
0000
0010
0000
0100
,
1000
1000
0000
0010
0000
0100
0000
0001
,
0010
0010
0000
0100
0000
0010
0000
0100
,
0001
0010
1000
0010
,
0100
1000
0100
0000
0001
0010
0001
0000
,
0100
0100
0000
0010
0000
1000
1000
0000
,
0010
0001
0010
0000
0100
1000
0100
0000
,
0010
0001
0000
0010
0000
1000
0000
0010
,
0100
0000
0001
0000
0010
0000
1000
0100
,
1000
0000
0010
0000
0100
0000
0001
0010
,
0001
0100
0100
0010
,
1000
0010
0100
0001
,
0010
0010
0100
0100
,
0010
0000
0110
0001
,
0010
1000
0011
0100
,
1000
0000
0010
0100
0010
0000
1000
0000
,
0100
0000
0001
0000
0100
0100
0010
0010
,
1000
1000
0010
0000
0100
0000
1100
0000
,
0010
0000
0100
0001
0100
0000
0010
0000
,
1000
0000
0001
0100
0001
0000
0100
0000
,
0010
1000
0001
0100
,
0010
1000
1000
0000
0110
0000
0001
0000
,
0100
0000
0010
1000
0020
0000
0130
0000
,
1000
0000
1000
0000
0001
0100
0001
0000
,
0010
0000
0001
0000
1000
0000
1000
0100
,
0000
0100
1000
0000
0010
0100
0110
0000
,
0001
0100
0010
1000
,
0010
0010
0100
0001
,
0100
0000
0010
0000
1000
0000
0001
1000
,
0000
1000
0001
0000
0110
0000
0000
0000
;

//---------------dance-single - ----------------
#NOTES:
     dance-single:
     :
     Easy:
     3:
     0.249,0.251,0.131,0.080,0.000: // measure 1
0010
0100
0001
0010
,  // measure 2
1000
0100
0010
1000
,  // measure 3
0010
0100
0001
0010
,  // measure 4
1100
0010
0101
0010
,  // measure 5
0100
0001
0010
1000
,  // measure 6
0001
0100
1000
0010
,  // measure 7
0100
1000
0001
0100
,  // measure 8
0010
0010
0010
0010
,  // measure 9
1000
0100
1000
0100
,  // measure 10
0001
0010
0001
0010
,  // measure 11
0010
0001
0100
0010
,  // measure 12
2000
0000
3100
0100
,  // measure 13
0010
1000
0010
0001
,  // measure 14
0100
0010
1000
1000
,  // measure 15
0001
0100
0001
0100
,  // measure 16
0010
0010
0010
0000
,  // measure 17
1001
0010
0001
0010
,  // measure 18
0100
0100
0001
0001
,  // measure 19
1000
0100
0010
0001
,  // measure 20
0100
1000
0100
1000
,  // measure 21
0010
0010
0001
0001
,  // measure 22
0100
0010
1000
0010
,  // measure 23
0020
0130
0001
0010
,  // measure 24
1000
0000
0001
0000
,  // measure 25
1001
0010
0001
0010
,  // measure 26
1100
0010
0100
1000
,  // measure 27
0011
0100
0010
0100
,  // measure 28
0001
1000
0010
0100
,  // measure 29
1001
0010
0001
0001
,  // measure 30
0110
1000
0010
0010
,  // measure 31
0101
1000
0010
1000
,  // measure 32
0010
0100
0001
0010
,  // measure 33
2000
3000
0002
0003
,  // measure 34
0100
0100
0001
0001
,  // measure 35
0020
0030
0200
0300
,  // measure 36
0001
1000
0010
0100
,  // measure 37
1001
0000
0011
0000
,  // measure 38
0110
0000
1010
0000
,  // measure 39
0100
0100
0001
0001
,  // measure 40
1000
0100
0010
0001
,  // measure 41
0200
0000
0000
0000
0000
0000
0000
0300
,  // measure 42
0000
0000
0010
0100
,  // measure 43
0010
0100
0001
1000
,  // measure 44
0001
1000
0001
0010
,  // measure 45
0001
0010
1000
1000
,  // measure 46
0100
0010
1001
0010
,  // measure 47
1000
0010
1100
0001
,  // measure 48
0100
0001
0110
0001
,  // measure 49
0010
0100
0001
0001
,  // measure 50
0100
0100
0001
0200
,  // measure 51
0310
1000
0010
0100
,  // measure 52
0001
0001
0010
0001
,  // measure 53
0100
1000
0020
0030
,  // measure 54
2000
3000
0010
0110
,  // measure 55
1000
0010
0100
0001
,  // measure 56
0010
0010
1000
0002
,  // measure 57
0003
0100
0010
0010
,  // measure 58
1000
0010
1001
0000
;
