#TITLE:Short Hair;
#SUBTITLE:;
#ARTIST:AOA;
#TITLETRANSLIT:;
#SUBTITLETRANSLIT:;
#ARTISTTRANSLIT:;
#CREDIT:;
#BANNER:Short Hair banner.png;
#BACKGROUND:Short Hair bg.png;
#LYRICSPATH:;
#CDTITLE:;
#MUSIC:Short Hair.mp3;
#OFFSET:-10.000;
#SAMPLESTART:53.340;
#SAMPLELENGTH:15.000;
#SELECTABLE:YES;
#BPMS:0.000=110.040;
#STOPS:;
#BGCHANGES:;

//---------------dance-single - ----------------
#NOTES:
     dance-single:
     :
     Hard:
     7:
     0.420,0.384,0.108,0.054,0.234:
1001
0000
1001
0000
0000
0000
0010
0000
0000
0000
0010
0000
0000
0000
0010
0100
,
0010
0000
1000
0001
1000
0000
0100
0000
0010
0000
0000
0001
0000
0000
0010
0000
,
0100
0000
1000
0000
0000
0000
0100
0000
0000
0000
0100
0000
0000
0000
0100
1000
,
0100
0000
0010
0000
0001
0000
0000
0000
0010
0000
0100
0000
0010
0010
0000
0000
,
1000
0000
0100
0000
0010
0000
0001
0000
0010
0000
0100
0010
0000
0100
0000
1000
,
0000
0000
0100
0000
0010
0000
0001
0000
0010
0000
1000
0010
1000
0010
0000
0100
,
0000
0000
0001
0000
0010
0000
1000
0000
0010
0000
0100
0001
0000
0001
0100
0000
,
0010
0000
0000
0000
1000
0000
0010
0000
1000
0000
0100
0001
0000
0000
0001
0000
,
0000
0000
0010
0000
0001
0000
1000
0000
0010
0000
0100
0001
0000
1000
0000
0010
,
0000
0000
0010
0000
0100
0000
1000
0000
0001
0000
0100
0010
0000
0001
0000
0010
,
0000
1000
0000
0000
0100
0000
0010
0000
1000
0000
0001
0000
0010
0000
0001
0000
,
1000
0000
0010
0000
1000
0000
0100
0000
0010
0000
0000
0000
1000
0000
0001
0100
,
0001
0000
0010
1000
0000
1000
0010
0000
0100
0000
0001
1000
0000
1000
0001
0000
,
0100
0000
0010
0000
0100
1000
0010
0100
,
0001
0000
0000
0010
0000
0000
0100
0000
0000
0000
0011
0000
0000
0000
0110
0000
,
0000
1100
0000
1001
0000
0020
0000
1030
,
0100
0000
0001
0100
0000
0100
0001
0000
0010
0000
0000
0000
0100
0000
0001
1000
,
0001
0000
1000
0010
0000
0010
1000
0000
0010
0000
0000
0000
0100
0000
0001
0000
,
0100
0000
0010
1000
0000
0000
0100
0000
0001
0000
0100
0000
0010
0000
1000
0000
,
0010
0000
0000
0000
0100
0000
0001
0100
0001
0000
0010
0000
1000
0000
0010
0000
,
0110
0000
0000
0000
1001
0000
0000
0100
0010
0000
0020
0000
0000
0000
0130
0001
,
0100
0000
0000
0010
0000
0000
1000
0000
0010
0000
0000
0000
0100
0000
0001
0000
,
0010
1000
0010
0100
0001
1000
0010
1000
,
0010
0000
0100
0001
0100
0000
0010
0100
,
0110
0000
0000
0000
1001
0000
0000
0010
0100
0000
2000
0000
0000
0000
3100
0010
,
0001
0000
0000
0001
0000
0000
0100
0000
0010
0000
0100
0000
0000
0000
0001
0000
,
1000
0010
0001
1000
0001
0100
0010
1000
,
0000
1000
0000
0010
0100
0001
0100
0010
,
1001
0000
1000
0000
0100
0001
0000
0010
,
0000
2000
0000
3100
0000
0010
0100
0010
,
0001
0000
1000
0010
0000
0000
0100
0000
0100
0000
0001
0010
0001
0000
0100
0000
,
0010
0000
1000
0001
0000
0001
1000
0000
0010
0000
0100
0000
1000
0000
0000
0000
,
0101
0000
0010
0000
1000
0010
0000
0010
,
0000
0002
0000
0103
0000
0010
1000
0010
,
0100
0000
0001
0010
0000
0000
0100
0000
0010
0000
1000
0000
0010
0000
0100
0000
,
0001
0010
1000
0010
0010
0000
0100
0001
,
0100
0000
0100
0000
0000
0000
0001
0000
0000
0000
1000
0000
0010
0000
0100
0010
,
0100
0000
0001
1000
0001
0000
0100
0000
0010
0000
0000
0010
0000
0000
1000
0000
,
0100
0000
0010
0000
0000
0000
0001
0000
0000
0000
0100
0010
1000
0000
0100
0000
,
0001
0000
0010
0000
1000
0100
0001
0100
,
0010
1000
0000
0001
0000
0100
0000
0010
,
0000
0000
0100
0001
0100
0000
0010
0000
1000
0000
0000
0001
0000
0000
1000
0000
,
0010
0100
0000
0001
0000
0100
0010
0100
,
1000
0000
0010
0000
0100
0000
0001
0000
0000
0000
0010
0000
0000
0000
1000
0010
,
2000
0000
0000
0000
,
3000
0000
0000
0000
;

//---------------dance-single - ----------------
#NOTES:
     dance-single:
     :
     Medium:
     5:
     0.298,0.283,0.054,0.108,0.000:
1010
0000
0100
0000
0001
0000
0100
0010
,
0010
0000
0101
0000
0010
0010
0010
0000
,
1000
0001
0000
0010
0000
0100
0000
0010
,
0100
1001
0100
0010
,
1000
0000
0100
0000
0001
0000
0100
0010
,
0100
0000
0001
0000
0010
0000
0100
1000
,
0100
1000
0001
1000
,
0010
0000
0010
0000
0100
0001
0001
0000
,
0010
0000
0001
0000
0100
0000
0010
1000
,
0010
0000
0100
0000
1000
0000
0010
0100
,
0010
0010
0100
0001
,
0100
1000
0020
0030
,
1000
0100
0010
0001
,
0001
0000
0010
0000
0100
0000
1000
0010
,
1000
0000
0010
0100
0000
0001
0000
1000
,
0000
0010
0000
1000
0000
0010
0000
0100
,
0100
0001
0001
0100
0010
0000
1000
0000
,
0010
0010
1000
1000
0010
0000
0010
0000
,
1001
0010
0100
1000
,
0020
0000
0030
0000
0100
0000
0010
0100
,
0010
0000
0001
0000
1000
0010
0000
0010
,
1000
0000
0010
0100
0001
0000
0010
0000
,
1000
0100
1000
0000
0001
0010
0001
0000
,
0010
0100
0001
0100
,
0010
0000
1010
0000
0100
0001
0000
0001
,
0100
0000
0010
0000
1000
0001
0000
0001
,
0010
0000
0100
0010
0100
0000
0001
1000
,
0001
0000
0010
0000
0100
1000
0100
0010
,
0200
0302
0023
0230
,
0310
0000
1000
0000
0001
0000
0100
1000
,
1000
0000
0010
0000
0100
0000
0010
0001
,
0001
0010
0100
0001
,
2000
3200
0320
0032
,
0103
0000
0010
0000
1000
0000
0010
0100
,
0100
0010
0001
0100
,
0010
0000
1000
0001
1000
0000
0010
0100
,
0010
0100
0000
0000
0100
0000
0010
0000
,
0001
0000
1000
0000
0001
0100
0001
1000
,
0010
1000
0000
0000
0010
0000
0100
0000
,
1000
0000
0010
0000
0100
0000
0001
0100
,
0001
0100
0000
0010
0000
1000
0000
0010
,
0000
0100
0100
0001
0001
0000
0010
1000
,
0001
1000
0000
0010
0000
0100
0001
0100
,
0010
0000
0010
1000
0000
1000
0000
0010
,
0220
0000
0000
0000
0000
0030
0000
0000
,
0300
0000
0000
0000
;

//---------------dance-single - ----------------
#NOTES:
     dance-single:
     :
     Easy:
     3:
     0.255,0.263,0.072,0.180,0.000: // measure 1
1001
0010
0100
0001
,  // measure 2
0100
0100
0010
0010
,  // measure 3
1010
0100
0001
0100
,  // measure 4
0010
0010
0100
0100
,  // measure 5
0001
0010
0100
1000
,  // measure 6
0020
0130
0001
1000
,  // measure 7
0020
0031
0100
0010
,  // measure 8
1000
1000
1000
0010
,  // measure 9
0100
0100
0001
0100
,  // measure 10
2000
3010
0100
0001
,  // measure 11
2000
3010
0001
0010
,  // measure 12
0001
0100
0100
0010
,  // measure 13
1000
0100
0010
0001
,  // measure 14
0020
0000
0030
0100
,  // measure 15
0100
0000
0001
0000
0100
0001
0000
1000
,  // measure 16
0000
0010
0000
0100
0000
0010
0000
0000
,  // measure 17
0010
0010
0002
0003
,  // measure 18
0100
0100
2000
3010
,  // measure 19
0100
0001
0100
0010
,  // measure 20
2000
3000
1000
0010
,  // measure 21
1001
0100
0010
1000
,  // measure 22
0010
0001
0100
0010
,  // measure 23
1000
0100
1000
0100
,  // measure 24
0010
0010
0100
0100
,  // measure 25
0001
0010
0100
0010
,  // measure 26
1000
0010
0100
0001
,  // measure 27
0100
0100
0100
0010
,  // measure 28
1000
1000
0001
0001
,  // measure 29
2000
3020
0230
0302
,  // measure 30
1003
0010
0001
0100
,  // measure 31
0010
0010
0001
0100
,  // measure 32
1000
1000
0010
0100
,  // measure 33
0002
0023
0230
2300
,  // measure 34
3010
0100
0001
1000
,  // measure 35
0010
0010
0001
1000
,  // measure 36
0100
0010
1000
0010
,  // measure 37
1002
0000
0013
0100
,  // measure 38
0010
0001
1000
0010
,  // measure 39
2001
0000
3010
0100
,  // measure 40
0010
1000
0010
0001
,  // measure 41
0110
0100
0100
0010
,  // measure 42
1000
0001
0100
0010
,  // measure 43
0110
0001
0100
0010
,  // measure 44
1000
1000
0010
0100
,  // measure 45
2002
0000
0000
3000
,  // measure 46
0003
0000
0000
0000
;
