#TITLE:SIREN;
#SUBTITLE:;
#ARTIST:SUNMI;
#TITLETRANSLIT:;
#SUBTITLETRANSLIT:;
#ARTISTTRANSLIT:;
#CREDIT:;
#BANNER:SIREN banner.png;
#BACKGROUND:SIREN bg.png;
#LYRICSPATH:;
#CDTITLE:;
#MUSIC:SIREN.mp3;
#OFFSET:-8.920;
#SAMPLESTART:48.240;
#SAMPLELENGTH:15.000;
#SELECTABLE:YES;
#BPMS:0.000=122.000;
#STOPS:;
#BGCHANGES:;

//---------------dance-single - ----------------
#NOTES:
     dance-single:
     :
     Hard:
     7:
     0.468,0.460,0.252,0.089,0.137:
0010
0100
0001
0000
0010
1000
0100
0000
,
0010
1000
0100
0000
0010
0100
0001
0000
,
0001
1000
0001
0000
0100
1000
0100
0000
,
0010
1000
0001
0000
0010
0100
1000
0000
,
0010
0100
0001
0100
0000
0100
0010
1000
,
0100
1000
0100
0010
0000
0100
0001
0010
,
1000
0010
0001
0010
0000
0010
0001
0100
,
1000
0100
0010
0100
0000
0100
0110
0000
,
0010
0001
0001
0010
0100
1000
0100
1000
,
0010
0100
0001
1000
1000
0010
0010
0100
,
1000
0100
0010
0100
0000
0100
0001
0010
,
1000
0000
0000
0001
0000
0000
1000
0000
0010
0000
0000
0100
0000
0000
1000
0000
,
0012
0000
0010
0000
0100
0000
0003
0010
,
0100
0000
0001
0000
1000
0000
0010
0100
0000
0100
0000
0000
1000
0000
0010
0000
,
2100
0000
0100
0000
0010
0000
3000
0010
,
0001
0000
0100
0000
0010
1000
0000
1000
0000
0010
0000
0100
0000
0001
0000
0000
,
0110
0000
0001
1000
0000
0000
0000
0000
0100
0000
0001
0000
1000
0000
0010
0000
,
1100
0000
0000
0000
0100
0000
0100
0001
0100
0000
0010
0000
1000
0000
0010
0000
,
0101
0000
0010
0100
1000
0100
0010
0000
,
2000
3002
0023
0130
,
1001
1000
1000
0100
0010
0100
0010
0011
,
0000
0010
0100
0010
1000
0010
0001
0100
,
0000
0110
0000
0010
0001
0100
1000
0001
,
0110
0000
0000
1000
0000
0000
0100
0000
1100
0000
0000
0010
0000
0000
0100
0000
,
0011
0010
0100
1000
0100
0010
0100
1100
,
0000
0010
0100
0001
0010
1000
0000
0010
,
0000
1001
0000
0010
0000
0100
0001
0010
,
1100
0000
0000
0001
0000
0000
0100
0000
0011
0000
0000
0010
0000
0000
1000
0000
,
0001
0010
1000
0010
0000
0010
0100
1000
,
0000
1000
0100
0010
0000
0001
0000
0100
,
0020
0000
0000
0000
0100
0000
0000
0000
0100
0000
0000
0001
0030
0000
1000
0000
,
0100
0010
0001
0010
0000
0100
0010
0000
,
1000
0100
0010
0001
0000
0001
0010
0100
,
0000
0010
0100
1000
0000
0010
0100
0001
,
2000
0000
0000
0000
0100
0000
0000
0000
0100
0000
0000
0010
3000
0000
0100
0000
,
0001
1000
0001
0010
0000
0010
0100
0000
,
1000
0000
1100
0000
0001
0010
0100
1000
,
1001
0000
0100
0010
0010
1000
0110
0000
,
0001
1000
0000
0000
1000
0001
0000
0000
0010
0100
0000
0000
0110
0000
0000
0000
,
0010
0000
0100
1000
1000
0100
0010
0100
,
0001
0000
0100
0000
0010
0000
0100
0000
0001
1000
0001
1000
0010
0000
0100
0000
,
0011
0100
1000
1000
0010
0001
0110
0000
,
0010
0100
0000
0000
1000
0100
0000
0000
0010
0100
0000
0000
0001
0010
0000
0000
,
1000
0000
0010
0100
0001
0100
0020
0000
,
0130
1000
0000
0000
0001
0010
0000
0000
0100
0010
0000
0000
1000
0100
0000
0000
,
0010
0100
0001
0100
0010
0010
0010
0010
,
1001
0010
1000
0010
0100
0010
0000
0001
,
0000
0110
0000
1000
0010
0100
1000
0100
,
0110
0000
0000
0001
0000
0000
1000
0000
1100
0000
0000
0010
0000
0000
0100
0000
,
0011
0100
0010
1000
0001
0100
0010
0110
,
0000
0100
0010
1000
0100
0001
0000
1000
,
0000
1001
0000
0010
0001
1000
0001
0100
,
1010
0000
0000
0100
0000
0000
1000
0000
1010
0000
0000
0001
0000
0000
0100
0000
,
0010
0000
0000
0000
0110
0000
0000
0000
0001
0000
0000
0010
0000
0000
0100
0000
,
1000
0000
0000
0000
1100
0000
0000
0000
0010
0000
0000
0100
0000
0000
0010
0000
,
0001
0010
0100
1000
0100
0010
0100
0000
,
0010
0100
0001
0100
0000
0010
1000
0000
,
0010
1000
0100
1000
0000
0001
0010
0001
,
0000
0100
0010
0100
0000
0001
0010
0100
,
2000
0000
0000
0000
0010
0000
0000
0000
0010
0000
0000
0100
3000
0000
0010
0000
,
0001
1000
0010
0100
0000
0010
0100
0000
,
0012
0020
0233
0000
,
0000
0300
0000
0000
0000
0000
0000
0000
;

//---------------dance-single - ----------------
#NOTES:
     dance-single:
     :
     Medium:
     4:
     0.324,0.298,0.081,0.037,0.000:
1010
0010
0010
0100
,
0001
0100
0010
0010
,
0001
0010
0010
0100
,
1000
0100
0010
0010
,
0101
0010
1000
0010
,
0100
0001
0100
0000
0010
0000
1000
0000
,
0010
0100
1000
0100
,
0001
0000
0100
1000
0000
1000
0100
0000
,
0010
0100
1000
0010
,
0100
0000
0001
0100
0001
0000
0010
0000
,
0100
0000
0001
0100
0000
0100
0010
0000
,
0010
0000
1000
0001
1000
0000
0010
0000
,
1100
0000
0100
0000
0020
0000
0000
0130
,
0100
0000
0001
0000
0100
0010
0100
0000
,
0011
0000
0010
0000
0200
0000
0000
1300
,
1000
0010
0100
0001
,
0010
0100
1000
0000
0100
0000
0010
0100
,
1000
0010
0001
0100
,
0010
0000
0010
0000
0100
0010
0100
0000
,
0010
1000
0010
0110
,
0001
0000
0010
0000
1000
0100
0010
0001
,
0000
0000
1001
0000
0010
0100
0000
0100
,
0000
1000
0000
0100
0000
0001
0100
0000
,
0010
0000
0010
0000
0100
0010
0100
0000
,
0001
0000
0010
0000
0001
0010
0100
1000
,
0000
0000
0110
0000
1000
0010
0000
0100
,
0000
0010
0000
0001
0000
0100
0010
0000
,
1000
0000
0010
0000
0100
0001
0100
0000
,
0010
0000
1000
0000
0100
1000
0000
1000
,
0100
0000
0010
0000
0100
0001
0000
0001
,
0100
0000
0010
0000
0100
0010
0000
0010
,
0100
0000
0001
0000
0100
0010
0100
0000
,
0010
0000
1000
0001
0000
0001
1000
0000
,
0010
0000
0100
0001
0000
0001
0100
0000
,
0010
0000
1000
0100
0000
0100
1000
0000
,
0010
0100
1000
0100
0000
0010
0100
0000
,
0010
0011
0010
0010
,
0100
0000
0010
0000
1000
0100
1000
0000
,
0010
0100
1000
0110
,
0001
0000
0100
0000
0010
0000
0001
0010
,
0100
0000
0010
0000
1000
0000
0100
0010
,
0100
0000
0001
0010
0001
0000
0010
0000
,
0100
0010
1000
0010
,
0100
0000
1000
0100
0010
0000
0100
0000
,
0010
0100
0001
0010
,
0000
0000
1100
0000
0100
0000
0010
0001
,
0000
0001
0010
0000
0010
0100
0000
0100
,
0000
1000
0000
0001
0000
0100
0010
0100
,
0010
0000
0001
0000
0010
0000
1000
0100
,
0010
0000
0010
0000
0001
0010
0100
1000
,
0000
0000
1001
0000
0010
0100
0000
0100
,
0000
0001
0000
0100
0000
0010
0000
1000
,
0010
0000
0010
0000
0100
0001
0100
0000
,
0010
0000
1000
0010
0000
0010
1000
0000
,
0100
0000
1000
0100
0000
0100
1000
0000
,
0010
0000
0100
0001
0000
0001
0100
0000
,
0010
0000
0001
0000
0010
0100
0010
0000
,
0001
0000
0010
0100
0000
0100
0010
0000
,
0100
0000
1000
0010
0000
0010
0001
0000
,
0010
0000
0100
0010
0000
0010
1000
0000
,
0010
0000
0100
0000
0001
0100
0001
0000
,
0020
0230
0020
0000
,
0330
0000
0000
0000
;

//---------------dance-single - ----------------
#NOTES:
     dance-single:
     :
     Easy:
     2:
     0.264,0.230,0.022,0.030,0.000: // measure 1
1000
0100
0100
0010
,  // measure 2
0100
0100
0001
0010
,  // measure 3
0001
0010
0010
0100
,  // measure 4
1000
1000
0100
0010
,  // measure 5
0100
0001
0010
0100
,  // measure 6
0010
0100
1000
0100
,  // measure 7
0010
0100
1000
0100
,  // measure 8
0010
0001
0100
0010
,  // measure 9
1000
0010
0100
0100
,  // measure 10
0010
0001
0001
0100
,  // measure 11
0010
1000
0010
0100
,  // measure 12
1000
0100
0010
0001
,  // measure 13
0010
0100
2000
3000
,  // measure 14
0010
0010
0100
0010
,  // measure 15
0001
1000
0020
0030
,  // measure 16
0100
0100
0010
0001
,  // measure 17
0010
0100
1000
0100
,  // measure 18
0100
0010
0100
0010
,  // measure 19
0001
0010
0100
0010
,  // measure 20
2000
0000
0000
3010
,  // measure 21
1000
0010
0001
0001
,  // measure 22
0010
0100
0010
1000
,  // measure 23
0010
0100
1000
0100
,  // measure 24
0010
0010
0100
0100
,  // measure 25
0010
0001
0010
0010
,  // measure 26
0100
0010
1000
0100
,  // measure 27
0001
0100
1000
0100
,  // measure 28
0010
0100
0010
0010
,  // measure 29
0100
0001
0010
0010
,  // measure 30
1000
0100
1000
1000
,  // measure 31
0100
0010
0001
0001
,  // measure 32
0010
0100
0010
0001
,  // measure 33
0010
0100
0010
0010
,  // measure 34
0100
1000
0100
0100
,  // measure 35
0001
0100
0010
0010
,  // measure 36
0100
1000
0100
0001
,  // measure 37
0010
0110
0010
0010
,  // measure 38
0100
0010
0001
0010
,  // measure 39
0100
0100
0100
1001
,  // measure 40
0010
0100
1000
0100
,  // measure 41
0010
0001
0100
0010
,  // measure 42
0001
0010
0100
0010
,  // measure 43
0001
0001
0001
1001
,  // measure 44
0010
0100
1000
1000
,  // measure 45
0100
0100
0100
0100
,  // measure 46
0010
0010
0100
0001
,  // measure 47
0010
1000
0010
0100
,  // measure 48
1000
1000
0010
0010
,  // measure 49
0100
0001
0100
0010
,  // measure 50
1000
0100
0010
0010
,  // measure 51
0001
0010
0100
0100
,  // measure 52
0010
0100
0001
0010
,  // measure 53
1000
0100
0010
0010
,  // measure 54
0100
0001
0100
0100
,  // measure 55
0010
1000
0010
0010
,  // measure 56
0100
1000
0100
0100
,  // measure 57
0001
0010
0100
0001
,  // measure 58
0010
0100
0001
0001
,  // measure 59
0010
1000
0100
0100
,  // measure 60
0010
0100
1000
1000
,  // measure 61
0100
0010
0001
0100
,  // measure 62
0001
1000
0002
0000
,  // measure 63
0003
0000
0000
0000
;
