#TITLE:SEE SEA;
#SUBTITLE:;
#ARTIST:HYOLYN;
#TITLETRANSLIT:;
#SUBTITLETRANSLIT:;
#ARTISTTRANSLIT:;
#CREDIT:;
#BANNER:SEE SEA banner.png;
#BACKGROUND:SEE SEA bg.png;
#LYRICSPATH:;
#CDTITLE:;
#MUSIC:SEE SEA.mp3;
#OFFSET:-8.600;
#SAMPLESTART:82.340;
#SAMPLELENGTH:15.000;
#SELECTABLE:YES;
#BPMS:0.000=117.960;
#STOPS:;
#BGCHANGES:;

//---------------dance-single - ----------------
#NOTES:
     dance-single:
     :
     Hard:
     7:
     0.465,0.505,0.113,0.294,0.090:
0010
0000
0000
0100
0000
0000
0001
0000
0000
1000
0000
0000
0010
0000
0010
0000
,
0100
0000
0000
0001
0000
0000
1000
0000
0000
0010
0000
0000
1000
0000
1000
0000
,
0010
0000
0000
0001
0000
0000
0010
0000
0000
0100
0000
0000
0010
0000
1000
0000
,
0010
0000
0010
0000
0100
0000
0000
0001
0000
0000
0100
0000
0020
0000
0000
0000
,
0130
0000
0001
1000
0001
1000
0010
0100
,
2000
0000
3010
0000
0100
0000
0001
0001
,
0010
0000
0100
0010
0001
0010
0100
1000
,
0002
0003
0200
0300
0020
0030
2000
3000
,
0010
0000
0100
0001
0010
1000
0010
0100
,
0010
0200
0000
0301
0000
0001
0010
0010
,
1000
0000
0010
0100
0001
0100
1000
0010
,
0200
0300
0002
0003
2000
3000
0020
0030
,
0110
0000
1000
0000
0001
0100
1000
0010
,
0000
0010
0000
0100
0001
0010
1000
0100
,
0000
0100
0010
0100
0001
0000
0010
1000
,
0000
1000
0000
0010
0100
0010
0001
0000
,
0110
0000
1000
0000
0001
0100
1000
0100
,
0000
0100
0000
0010
1000
0100
0001
0100
,
0000
0100
0010
0001
1000
0000
0010
0100
,
0000
0001
0000
0100
0000
0010
1000
0010
,
0100
0000
0001
0000
0001
0000
0010
0000
0100
0000
0000
0000
1001
0000
0010
0100
,
0010
1000
0001
0010
1000
0000
0010
0000
,
0100
0000
0000
0001
0000
0000
0100
0000
0000
1000
0000
0000
0020
0000
0000
1000
,
0130
0000
0002
0000
0023
0000
0130
0100
,
0001
1000
0010
0100
0010
0000
0100
0001
,
0010
1000
0010
0100
0010
0000
0010
0000
,
0001
0000
0000
0010
0000
0000
0100
0000
0000
1000
0000
0000
0010
0000
0000
0000
,
0100
0000
0010
0100
0010
0100
0000
0000
0001
1000
0000
0100
0000
0010
0000
0010
,
0100
0000
0001
0100
0010
1000
0001
0100
,
0010
0000
0100
0010
0001
1000
1000
1000
,
0010
0000
0100
1000
0001
0100
0010
1000
,
0020
0030
2000
3000
0002
0003
0200
0300
,
0010
0000
0001
0100
0010
1000
0001
0100
,
0010
0200
0000
0310
0000
0001
1000
1000
,
0010
0000
0100
0010
0001
0010
1000
0010
,
0200
0300
2000
3000
0002
0003
0020
0030
,
1001
0010
1000
0100
0010
0001
0010
0100
,
1000
0000
0010
0100
0001
0010
0010
0010
,
0100
0000
0001
1000
0010
0001
0010
1000
,
0020
0030
0200
0300
0002
0003
2000
3000
,
0101
0010
1000
0010
0001
0100
0010
1000
,
0001
0200
0000
0310
0000
1000
0010
0010
,
0100
0000
0001
1000
0010
0001
1000
0010
,
0002
0003
0020
0030
0200
0300
2000
3000
,
0110
0000
0001
0010
0010
0100
0010
1000
,
0010
0000
0100
0000
0001
0000
1000
0100
,
0020
0000
0000
0230
0000
0301
0010
1000
,
0010
0001
0100
0010
0000
0010
0100
0000
,
0011
0000
0000
0010
0000
0000
0100
0000
0010
0000
0100
0000
1000
0000
0010
0000
,
0100
0000
0001
0100
1000
0000
1000
0100
,
0010
0000
0010
0100
0001
0010
0100
0000
,
0010
0100
0010
1000
0001
1000
0010
0000
,
0200
0000
0010
0010
0001
0000
0010
0310
,
1000
0000
0010
0100
0001
0010
1000
0010
,
0200
0000
0000
0000
0000
0010
0310
0010
,
0001
0000
0010
0100
0001
0010
1000
0010
,
1100
0110
0011
0110
,
0010
0000
1000
0001
0010
1000
0010
0001
,
0100
0020
0000
0000
0000
1000
1000
1030
,
0100
0000
0010
0100
0001
1000
0010
0100
,
1001
0110
1001
0110
,
1001
0010
0001
0100
1000
0010
0100
0010
,
1000
0000
0100
0000
0001
0010
0010
0100
,
0010
0000
1000
0001
0100
1000
0100
0010
,
1000
0200
0300
0000
0001
0020
0030
0000
0100
0002
0003
0000
0010
2000
3000
0000
,
0110
0001
0010
0001
1000
0100
1000
0010
,
0100
0010
0000
0001
0000
0010
0100
1000
,
0100
0000
0010
0001
0010
0010
0100
1000
,
0100
0020
0030
0000
0001
2000
3000
0000
0010
0200
0300
0000
0010
0000
0000
0000
;

//---------------dance-single - ----------------
#NOTES:
     dance-single:
     :
     Medium:
     6:
     0.313,0.298,0.000,0.000,0.000:
0010
0000
0100
0001
0000
0001
0010
0100
,
1000
0000
0010
0100
0000
0100
0010
0100
,
0010
0000
1000
0001
0000
0001
0010
0001
,
0010
0100
1000
0010
,
0100
0000
0100
0000
0010
0000
1000
0010
,
1000
0000
0100
0000
0001
0000
0100
0100
,
0010
0000
0001
0000
0010
0000
0100
0010
,
0001
0010
0100
1000
,
0010
0000
0100
0000
0001
0000
0010
0001
,
0010
0000
0100
0000
0010
0000
1000
0010
,
1000
0010
0100
0010
,
1000
0100
0010
0001
,
0010
0000
0010
0000
0100
0000
0001
0100
,
0000
0100
0000
0010
1000
0000
1000
0010
,
0000
0010
0100
0010
0100
0000
0010
0001
,
0000
0010
0000
1000
0010
1000
0010
0000
,
0010
0000
0100
0000
0010
0000
1000
0001
,
0000
0001
0000
0010
0100
0000
0010
1000
,
0000
1000
0100
0000
0010
0000
0100
0010
,
0000
0010
0000
0001
0000
0100
0010
0000
,
0100
0000
0010
0010
0010
0000
0100
0000
,
0001
0000
1000
1000
1000
0000
0010
0000
,
0100
0000
1000
0001
0000
0001
1000
0000
,
0010
0000
1000
0000
0010
0000
0100
0001
,
0000
0001
0010
0001
0010
0000
0100
0000
,
0010
0000
1000
0010
1000
0000
0010
0000
,
0100
0000
0010
1000
0000
1000
0010
0000
,
0100
0100
0100
0000
0010
0000
0100
0000
,
0010
0000
1000
0001
1000
0000
0010
0000
,
0100
0010
0001
1000
,
0010
0000
1000
0100
1000
0000
0010
0000
,
1000
0100
0010
0001
,
0100
0000
0010
0000
0100
0000
0001
0010
,
0001
0000
0100
0000
0010
0000
1000
1000
,
1000
0000
0010
0000
0100
0000
0010
0100
,
0001
0010
0100
1000
,
0010
0000
0100
0001
0100
0000
0010
1000
,
0010
0100
0010
1000
,
0001
0000
0100
0010
0100
0000
0010
1000
,
0010
0100
0010
0100
,
0001
0000
1000
0100
1000
0000
0001
0010
,
0001
0100
0010
0001
,
0100
0000
0010
0100
0010
0000
0001
1000
,
0001
0010
1000
0010
,
0100
0000
1000
0000
0010
0000
0100
0100
,
0100
0000
0001
0000
0100
0000
0010
0100
,
0010
0000
0000
0100
0000
0010
0010
0000
,
0100
0000
0001
1000
0000
1000
0001
0000
,
0010
0000
0100
0000
0001
0000
1000
0010
,
1000
0000
0010
0000
0100
0000
0001
0010
,
0000
0010
0000
0100
0010
0100
0010
0000
,
1000
0000
0010
0000
0100
0001
0100
0000
,
0000
0010
0010
0100
,
0010
1000
0010
0100
,
0001
0000
0010
0010
,
0001
0010
1000
0010
,
0100
1000
0100
0010
,
0100
1000
0010
0100
,
0001
0000
0010
0010
,
0100
0001
0010
1000
,
0010
0010
0010
0100
,
0001
0000
0100
0010
0100
0000
1000
0001
,
1000
0010
0100
1000
,
0010
0000
0001
0010
0001
0000
1000
0100
,
1000
0100
0010
0001
,
0010
0000
0100
0001
0100
0000
0010
1000
,
0010
0100
1000
0010
,
0001
0000
0100
0010
0100
0000
0001
1000
,
0001
0010
0100
1000
;

//---------------dance-single - ----------------
#NOTES:
     dance-single:
     :
     Easy:
     3:
     0.298,0.321,0.154,0.120,0.000: // measure 1
0010
0100
0001
0001
,  // measure 2
0010
1000
0010
0010
,  // measure 3
0100
1000
0100
0100
,  // measure 4
0001
0010
0100
1000
,  // measure 5
0010
0100
0001
0100
,  // measure 6
0020
0130
0001
0011
,  // measure 7
0010
1000
0010
0100
,  // measure 8
0011
0110
1100
0120
,  // measure 9
1030
0100
0010
0100
,  // measure 10
0001
0010
0100
0010
,  // measure 11
0010
0100
0001
1000
,  // measure 12
1100
0110
0011
0200
,  // measure 13
0310
0001
0010
1000
,  // measure 14
0010
0010
0100
0001
,  // measure 15
0100
0010
1000
0010
,  // measure 16
0100
0100
0001
0010
,  // measure 17
1001
0010
0100
1000
,  // measure 18
1000
0100
0010
0100
,  // measure 19
0001
0100
0010
1000
,  // measure 20
0020
0130
0001
1000
,  // measure 21
0010
0001
2000
3000
,  // measure 22
0010
0100
0001
0001
,  // measure 23
0010
1000
0010
0110
,  // measure 24
0100
0001
0010
1100
,  // measure 25
0010
0100
0002
0003
,  // measure 26
0010
0100
0010
0010
,  // measure 27
1000
0001
0010
0100
,  // measure 28
0001
0010
1000
0010
,  // measure 29
0110
1000
0010
0010
,  // measure 30
0002
0013
0100
0100
,  // measure 31
0010
1000
0010
0100
,  // measure 32
1000
0100
0010
0011
,  // measure 33
0010
0100
0010
1000
,  // measure 34
0010
0200
0310
0001
,  // measure 35
0010
1000
0010
0100
,  // measure 36
1100
0010
0100
0110
,  // measure 37
1001
0010
0100
0001
,  // measure 38
0200
0310
1000
0010
,  // measure 39
0100
0010
1000
0010
,  // measure 40
0001
0010
0100
0110
,  // measure 41
1000
0100
0010
1000
,  // measure 42
0200
0310
1000
0010
,  // measure 43
0100
0001
0010
0100
,  // measure 44
0010
0100
0010
0210
,  // measure 45
0310
0001
0010
1000
,  // measure 46
0010
0100
0100
0010
,  // measure 47
2000
0000
3100
0010
,  // measure 48
0100
0010
0100
0002
,  // measure 49
0013
0100
0010
0010
,  // measure 50
0100
0001
1000
0010
,  // measure 51
1000
0100
0010
0010
,  // measure 52
0100
0001
0100
0010
,  // measure 53
0000
0100
0100
0010
,  // measure 54
0200
0010
0010
0001
,  // measure 55
0310
0010
0001
1000
,  // measure 56
0002
0010
0010
0100
,  // measure 57
0013
0010
0110
0010
,  // measure 58
1000
0100
1000
0010
,  // measure 59
0200
0000
0010
0310
,  // measure 60
0001
0010
1000
0010
,  // measure 61
0100
0100
0100
0110
,  // measure 62
0001
1000
0010
0100
,  // measure 63
0002
0013
0100
0010
,  // measure 64
1000
0010
0100
1000
,  // measure 65
0011
0010
0110
1000
,  // measure 66
0100
0010
0001
0010
,  // measure 67
2000
3010
0100
0010
,  // measure 68
0010
0100
0001
0010
,  // measure 69
1000
0010
0001
0110
;
