#TITLE:Romeo;
#SUBTITLE:;
#ARTIST:HAN CHOIM;
#TITLETRANSLIT:;
#SUBTITLETRANSLIT:;
#ARTISTTRANSLIT:;
#CREDIT:;
#BANNER:Romeo banner.png;
#BACKGROUND:Romeo bg.png;
#LYRICSPATH:;
#CDTITLE:;
#MUSIC:Romeo.mp3;
#OFFSET:-11.080;
#SAMPLESTART:53.040;
#SAMPLELENGTH:15.000;
#SELECTABLE:YES;
#BPMS:0.000=90.000;
#STOPS:;
#BGCHANGES:;

//---------------dance-single - ----------------
#NOTES:
     dance-single:
     :
     Hard:
     8:
     0.487,0.475,0.198,0.103,0.535:
1001
0000
0000
0100
0000
0010
0001
0010
0100
0000
0010
0200
0000
0000
1300
0100
,
0010
0000
0001
0100
0000
0010
0000
2000
0000
0000
0100
0000
0010
0000
3010
0000
,
1001
0000
0000
0100
0001
1000
0001
0100
0001
0000
0010
1000
0000
0000
0100
0001
,
0100
0000
0010
1000
0000
0100
0000
0010
0002
0000
0000
0000
0013
0000
0100
0000
,
0010
0000
0100
0001
0000
1000
0000
0010
0000
0100
0000
1000
0000
0010
0000
0000
,
0101
0000
1000
0010
0000
0100
0000
0010
0200
0000
0000
0000
0310
0000
1000
0000
,
0001
0000
0100
0010
0000
1000
0000
0001
0000
0100
0000
0001
0000
0100
0000
0010
,
2000
0000
0000
0000
3100
0000
0010
0000
1000
0001
1000
0010
0100
0000
0010
0001
,
0110
0000
0000
1100
0000
0000
0100
0000
0110
0000
0000
0011
0000
0000
0010
0000
,
0001
0000
0010
0000
0100
0000
1000
0020
0000
0000
0000
0000
0130
0000
0000
0000
,
1001
0000
0000
0110
0000
0000
1100
0000
0110
0000
0000
1001
0000
0000
0101
0000
,
0010
0000
1000
0000
0010
0000
0100
0001
0200
0000
0000
0000
0310
0000
1000
0000
,
0011
0000
0010
0000
0110
0000
0100
0000
1100
0000
0100
0000
0110
0000
0100
1000
,
0100
0010
0001
0010
0100
0010
0100
0000
0010
0000
1000
0000
0010
0000
0001
0100
,
0010
1000
0010
0100
0010
0100
1000
0000
0010
0000
0100
0000
0001
0000
0100
0000
,
1000
0000
0001
0000
1000
0000
0001
0000
0100
0000
0010
0000
0100
0000
0010
0000
0100
0000
0000
0000
0000
0000
0100
0010
0001
0000
0010
0000
0100
0000
1000
0000
,
0110
0000
0001
1000
0001
0000
0100
1000
0100
0000
0010
0001
0010
0000
1000
0100
,
0010
0000
0100
0010
0001
0000
1000
1000
0100
0010
0001
0010
0100
1000
0100
0010
,
0001
0000
0010
0100
0010
0000
1000
0001
0010
0000
1000
0100
1000
0000
0010
0100
,
0001
0000
0000
0000
0000
0000
0010
0000
0000
0100
0000
0000
0000
0000
0000
1000
0000
0000
0000
0000
0000
0100
0000
0000
0010
0000
0000
0000
0001
0000
0000
0000
0010
0000
0000
0000
0100
0000
0000
0000
1000
0000
0000
0000
0100
0000
0000
0000
,
0220
0000
0330
1000
0100
0010
0001
0000
,
0010
0000
0100
0000
0001
0000
0100
0000
0010
0000
1000
0001
0000
0001
0000
0000
,
1010
0000
0000
0000
0100
0000
0100
0010
0001
0000
0100
0000
0100
0000
0010
1000
,
0010
0000
0100
0000
0010
0000
0000
1000
0100
0000
0001
0010
0000
1000
0000
0020
,
0000
0030
0100
0000
0010
0001
0100
0010
,
1000
0000
0100
0000
1000
0100
0010
0100
,
0010
0000
0000
0001
0000
0000
0010
0000
1000
0000
0000
0010
0000
0000
1000
0000
,
0100
0000
0001
0010
0000
0100
0000
0010
0000
0000
1000
0000
1000
0000
0100
0000
,
0010
0000
1000
0001
0000
0000
0010
0000
0010
0000
1000
0001
0000
0000
0010
0000
,
0100
0000
0001
1000
0000
0000
0010
0000
1000
0000
0001
0000
0100
0000
0010
0000
,
0100
0000
0000
0000
0001
0000
0000
0000
1000
0000
0000
0000
0001
0000
0000
0000
0020
0000
0000
0000
0030
0000
0000
0000
0100
1000
0001
0000
1000
0000
0010
0000
,
0001
0000
0010
0100
1000
0000
0100
1000
0100
0000
0010
0100
1000
0000
0100
1000
,
0100
0000
0010
0001
0010
0000
0100
0010
0001
0010
0100
1000
0100
0010
0100
0001
,
0100
0000
0010
1000
0010
0000
0100
0001
0100
0000
0010
1000
0010
0000
0100
1000
,
0100
0000
0000
0000
0000
0000
0001
0000
0000
1000
0000
0000
0000
0000
0000
0010
0000
0000
0000
0000
0000
0001
0000
0000
1000
0000
0000
0000
0100
0000
0000
0000
0010
0000
0000
0000
0001
0000
0000
0000
0010
0000
0000
0000
0100
0000
0000
0000
,
0010
0000
0000
1000
1000
0000
0100
0000
0001
0000
0100
0000
0010
0000
0000
0000
,
1001
0000
0010
0000
0010
0000
0001
0000
0100
0000
0010
1000
0000
1000
0000
0000
,
1001
0000
0000
0000
1000
0000
0100
0010
0001
0000
1000
0000
0010
0000
0100
1000
,
0100
0000
0001
0000
0100
0000
0010
0001
0010
0000
0100
0010
0000
1000
0000
0010
,
0100
0000
0001
0000
0100
0000
0010
1000
0010
0000
0100
0000
0002
0000
0000
0000
,
0013
0000
0000
0100
0000
0000
0001
0000
1000
0000
0010
0000
0100
0000
1000
0000
0100
0000
0010
0000
0000
0000
0000
0000
,
1001
0000
0100
0000
1100
0000
0100
0010
0100
0000
0001
0000
2000
0000
0000
0000
,
3010
0000
0000
0100
0000
0000
0001
0000
0010
0000
1000
0000
0100
0000
0000
0001
0000
0000
0110
0000
0000
0000
0000
0000
;

//---------------dance-single - ----------------
#NOTES:
     dance-single:
     :
     Medium:
     7:
     0.334,0.305,0.119,0.095,0.000:
1000
0000
0010
0100
1000
0100
0001
0000
,
0010
0001
0010
0100
0010
0000
0002
0000
,
0013
0000
0100
0010
1000
0001
0100
0000
,
0010
1000
0100
0001
0200
0000
0300
0010
,
0010
1000
1000
0010
0100
0001
0100
0000
,
0010
0001
1000
0010
0002
0000
0003
0000
,
0100
0100
1000
1000
0010
0100
0001
0000
,
0010
0000
0100
0000
0010
0010
1000
0010
,
0100
0000
0100
0001
0001
0000
0010
0100
,
0100
1000
0100
0010
0200
0000
0000
0300
,
0010
0000
1000
1000
0010
0000
0100
0100
,
0001
0100
0010
1000
0020
0000
0000
0030
,
1100
0000
0100
0100
0110
0000
0010
0001
,
0010
0100
0010
1000
0020
0000
0130
0001
,
1000
0010
0100
1000
0100
0010
0010
0010
,
0100
0001
0001
0001
1001
0000
0010
0010
,
0110
0000
1000
0100
0011
0000
0010
0100
,
1010
0000
0100
0001
0100
0010
1000
0010
,
1001
0000
0001
0010
1100
0000
0010
0100
,
0001
0100
0010
1000
0010
0010
0100
0100
,
1002
0000
0013
0100
0100
0010
0100
0000
,
1000
0100
0010
0001
0010
0100
0010
0010
,
0100
0000
0001
0010
0100
1000
0010
0000
,
0100
1000
0100
0000
0010
1000
0001
1000
,
0020
0000
0030
0000
1000
0100
0001
0100
,
2000
0000
3000
0000
0100
0010
0001
0010
,
0100
0000
0100
1000
0100
0000
0010
0000
,
0100
0010
0001
1000
0001
0000
1000
0100
,
0100
0010
0100
0000
0010
0010
0001
0000
,
0100
0100
0001
0000
0010
1000
0010
0100
,
0010
0000
0010
0100
0010
0000
0010
0010
,
0110
0000
1000
0001
0110
0000
0010
0001
,
0110
0000
1000
0010
0010
0100
0001
0100
,
1100
0000
0100
0010
0011
0000
0010
0100
,
0010
1000
0010
0001
0100
0010
1000
0010
,
0002
0000
0003
0010
0100
0010
0100
0000
,
0100
0010
1000
0001
0100
0010
0100
0100
,
0020
0000
0130
0001
0001
0010
0100
0000
,
0010
0100
1000
0000
0010
0010
0100
0010
,
2000
0000
3100
0000
0010
0100
0010
0000
,
0010
0000
0001
0000
0100
0010
0001
0000
,
0010
0100
0010
0000
1000
0001
1000
0000
,
0010
0000
0010
0000
1000
0001
1001
0000
;

//---------------dance-single - ----------------
#NOTES:
     dance-single:
     :
     Easy:
     5:
     0.220,0.237,0.095,0.087,0.000: // measure 1
0010
0100
0001
0001
,  // measure 2
0010
0000
1000
1000
1000
0000
0020
0000
,  // measure 3
0130
0001
0100
0010
,  // measure 4
1000
0000
0010
0010
0010
0000
0100
0000
,  // measure 5
1000
0100
0010
0001
,  // measure 6
0100
0000
0001
0001
0002
0000
0003
0000
,  // measure 7
0010
0100
0010
1000
,  // measure 8
0010
1000
1000
0001
,  // measure 9
0100
0100
0010
0010
,  // measure 10
1000
0001
2000
3000
,  // measure 11
0001
0001
1000
1000
,  // measure 12
0010
0100
0020
0030
,  // measure 13
1000
0100
0010
0010
,  // measure 14
0100
0001
0100
0010
,  // measure 15
0001
0100
0010
1000
,  // measure 16
0010
0000
0100
0100
0100
0000
0010
0000
,  // measure 17
1001
0010
1100
0010
,  // measure 18
0101
0000
0010
0000
0100
0100
0100
0000
,  // measure 19
0011
0100
0110
0010
,  // measure 20
1000
0000
0001
0000
0100
0000
0010
0010
,  // measure 21
0020
0130
1000
0100
,  // measure 22
1000
0001
0100
0010
,  // measure 23
1000
0100
0010
0010
,  // measure 24
0001
0001
0100
0010
,  // measure 25
2000
3000
0100
0010
,  // measure 26
0002
0003
0100
0010
,  // measure 27
1000
0100
0100
0010
,  // measure 28
0001
0010
0100
0010
,  // measure 29
1000
0200
0310
0002
,  // measure 30
0013
0200
0310
0010
,  // measure 31
2001
0000
3000
0100
,  // measure 32
0110
0010
0101
0010
,  // measure 33
1001
0010
0001
0001
,  // measure 34
1010
0100
1010
0010
,  // measure 35
0100
0010
0001
0010
,  // measure 36
0100
0010
1000
1000
,  // measure 37
0100
0010
0001
0001
,  // measure 38
0010
0100
0001
0001
,  // measure 39
0010
0010
0100
0001
,  // measure 40
1000
1000
0100
0100
,  // measure 41
0010
0100
0010
0100
,  // measure 42
0001
0001
0010
0010
,  // measure 43
0100
0001
0100
1001
;
