#TITLE:Ready Q;
#SUBTITLE:;
#ARTIST:JO JUNG MIN;
#TITLETRANSLIT:;
#SUBTITLETRANSLIT:;
#ARTISTTRANSLIT:;
#CREDIT:;
#BANNER:Ready Q banner.png;
#BACKGROUND:Ready Q bg.png;
#LYRICSPATH:;
#CDTITLE:;
#MUSIC:Ready Q.mp3;
#OFFSET:-5.020;
#SAMPLESTART:71.780;
#SAMPLELENGTH:15.000;
#SELECTABLE:YES;
#BPMS:0.000=98.100,88.000=101.700,90.000=103.580,91.000=104.800,93.000=106.400,94.000=110.900,100.000=111.720,102.000=120.140,107.000=129.360,109.000=135.200,112.000=134.400,141.000=134.100,202.000=133.900;
#STOPS:112.000=1.340
,141.000=1.340
,202.000=1.340
,231.000=1.340
;
#BGCHANGES:;

//---------------dance-single - ----------------
#NOTES:
     dance-single:
     :
     Hard:
     9:
     0.610,0.581,0.307,0.075,0.648:
1000
0100
0010
0001
0000
0010
0000
0110
0000
0000
0000
1000
0100
0010
0001
0000
,
0110
0000
0001
0010
0100
1000
0100
0010
0000
0100
0000
0010
0000
0001
0010
0200
,
0000
0000
0000
0000
0000
0000
0300
0000
0000
0000
0000
0000
0000
0000
0001
1000
0001
0000
0000
0000
0000
0000
0000
0000
0010
0000
0000
0000
0100
0000
0001
0000
,
0100
0000
0010
1000
0010
0100
0010
0001
0000
0010
0000
0100
0000
1000
0100
0020
,
0000
0000
0000
0000
0000
0000
0000
0000
0130
0000
0000
0000
0100
0000
0001
0010
,
0001
0000
0010
0100
1000
0100
0000
0020
0000
0000
0030
1000
1000
0000
0100
0000
,
0010
0000
0100
0001
0010
0100
0000
0100
0000
0010
0000
0010
0000
1000
0100
0010
,
0001
0110
0110
0001
0010
1100
1100
0010
,
0100
0000
0001
0000
0100
0000
0010
1000
0020
0000
0000
0000
0031
0000
1000
0000
,
0100
0000
0010
0001
0010
0000
0001
0000
0010
0000
0100
1000
0100
0000
0000
0000
,
0011
0000
0000
0000
0110
0000
0000
0000
1100
0000
0000
0000
0110
0000
0000
0020
,
0000
0000
0000
0000
0130
0000
0000
0000
0100
0000
0001
0000
0100
0000
0010
1000
,
0020
0000
0000
0000
0130
0000
0001
0000
0010
0000
0100
0000
0010
0001
1000
0100
,
0010
0000
0001
0010
0100
1000
0000
1000
0000
0000
0100
0010
0100
0000
0001
0000
,
0010
0000
0100
0010
0001
0010
0000
0010
0000
1100
0000
1100
0000
0010
0100
0010
,
0001
0110
0110
0001
1000
0110
0110
1000
,
0100
0000
0010
0000
0001
0000
0100
0010
0200
0000
0000
0000
0310
0000
0001
0000
,
0110
0000
0001
0010
0001
0000
0010
0000
0100
0000
0010
0100
0010
0000
0000
0000
,
1100
0000
0000
0000
0110
0000
0000
0000
0011
0000
0000
0000
0110
0000
0000
0200
,
0000
0000
0000
0000
0310
0000
0000
0000
0001
0000
0010
0000
0100
0010
0000
0010
,
0100
1000
0100
0010
0000
0001
0000
0010
0100
0000
0000
0010
0010
0000
0100
0000
,
0001
0000
0010
0100
0010
0000
1000
0000
0100
0010
0000
0010
0000
0001
0010
0000
,
0100
0000
1000
0000
0010
0100
0000
0100
0000
0000
1001
0000
1001
0000
0000
0000
,
0010
0000
0100
0000
0001
0000
1000
0000
0010
0000
0100
0001
0000
0001
0100
0000
,
0110
0000
0000
0000
0001
1000
0000
0000
0110
0000
0001
0010
0100
1000
0100
0010
,
0001
0000
0010
0100
0010
0000
1000
0000
0100
0010
0000
0010
0000
0001
0010
0000
,
0110
0000
1000
0000
0100
0010
0000
0010
0000
0000
1001
0000
1001
0000
0000
0000
,
0010
0000
0100
0000
1000
0000
0100
0000
0001
0000
0100
0010
0000
0010
0100
0000
,
1001
0000
0000
0000
0110
0000
0000
0001
0000
0000
0010
0000
0110
0000
0000
1000
,
0000
0000
0100
0000
0110
0000
0000
0001
0000
0000
0001
0000
0010
0000
0100
0000
,
1000
0100
0010
0001
0010
0000
0000
0010
0000
0000
0100
0000
0001
0000
0000
0010
,
0000
0000
0100
0000
0010
0000
0000
1000
0000
0000
0100
0000
0010
0000
0100
0010
,
0001
0010
0100
1000
0100
0000
0000
0010
0000
0000
0100
0000
0001
0000
0000
0010
,
0000
0000
0110
0000
1000
0000
0000
0100
0000
0000
0010
0000
0001
0000
0010
0000
,
0100
0010
1000
0100
0001
0000
0000
0010
0000
0000
0100
0000
0010
0000
0000
1000
,
0000
0000
0010
0000
0110
0000
0000
0000
0110
0000
0001
0010
0000
0010
0100
0000
,
0010
0000
1000
0100
0000
0100
0010
0000
0100
0000
0001
0010
0000
0010
0100
0000
,
0010
0000
1000
0000
0100
0010
0001
0010
0100
0000
0001
0010
0000
0010
0100
0000
,
0010
0000
1000
0010
0000
0010
0100
0000
1000
0000
0001
0100
0000
0100
1000
0000
,
0010
0000
0100
0010
0001
0010
0100
1000
0100
0000
0010
0100
0000
0100
0010
0000
,
1000
0000
0010
0100
0000
0100
0010
0000
0001
0000
0010
0100
0000
0100
0010
0000
,
1000
0000
0100
0000
0001
0010
0100
1000
0100
0000
0000
0011
0000
0000
0010
0000
,
0110
0000
0000
1000
0000
0000
0100
0000
0110
0000
0000
0000
0000
0000
0001
0010
,
0001
0010
0100
1000
0100
0000
0010
0011
,
0000
0010
0100
0010
2000
0000
3100
0000
,
0010
0100
1000
0100
0020
0000
0130
0100
,
0001
0010
0100
0010
1000
0100
0020
0000
,
0031
0000
0000
0000
0010
0000
0100
0010
0100
0000
0000
0001
0000
0000
0100
0000
,
0100
0000
0000
0000
0010
0000
1000
0100
0010
0000
0000
0000
0100
0001
0000
0000
,
0010
0100
0000
0000
0001
1000
0000
0000
0010
0000
0010
0000
0100
0000
0100
0000
,
0001
1000
0001
1000
0001
1000
0001
1000
0001
0000
0000
0000
0110
0000
1000
0100
,
0010
0000
0100
0010
0001
0000
0010
0100
0000
0100
0010
0000
0001
0000
0010
0100
,
0000
0100
1000
0000
0010
0000
0100
0000
0010
0001
0010
0100
1000
0000
0100
0010
,
0000
0001
0010
0000
0100
0000
0010
1000
0000
1000
0010
0000
0100
0000
0010
0100
,
0000
0100
0010
0000
0001
0000
0010
0100
1000
0100
0010
0001
0010
0000
0100
1000
,
0100
0000
0010
0000
0100
0000
0001
0010
0100
0000
0010
0000
1000
0000
0100
0010
,
0001
0000
0010
0000
0100
0000
0010
0000
1000
0100
0010
0001
0010
0000
1000
0100
,
0000
0100
0010
0000
0001
0000
0010
0100
0000
0100
1000
0000
0010
0000
0000
0000
,
0110
0000
0001
0010
0000
0010
0100
0000
1000
0000
1000
0000
1000
0100
0000
0100
,
0010
0000
0100
0000
0010
0000
0001
0000
0010
0000
0100
0000
0010
0001
0010
0100
,
0010
0000
1000
0100
0000
0100
0010
0000
0010
0000
0010
0000
0100
0001
0000
0001
,
0100
0000
0010
0000
1000
0000
0010
0000
0100
0000
0001
0010
0100
1000
0100
0010
,
0001
0000
0100
0010
0000
0010
0001
0000
1000
0000
0001
0000
1000
0010
0000
0010
,
1000
0000
1000
0100
0000
0100
0010
0000
0001
0000
0100
0000
0010
0100
1000
0100
,
0010
0000
0000
0011
0000
0000
0010
0000
0110
0000
0000
1000
0000
0000
0110
0000
,
0010
0000
0000
0000
1000
0001
0000
0000
1001
0000
0000
0000
0000
0000
0000
0000
;

//---------------dance-single - ----------------
#NOTES:
     dance-single:
     :
     Medium:
     6:
     0.315,0.291,0.089,0.027,0.003:
1000
0000
0100
0000
0010
0000
0100
0100
,
0001
0000
0010
0000
0100
0000
0010
1000
,
0020
0000
0130
0000
,
0010
0000
0010
0000
0100
0000
0100
0010
,
0002
0000
0000
0003
,
0010
0000
0100
0000
0010
0000
1000
1000
,
1000
0000
0100
0000
0010
0000
0100
0100
,
0100
0010
0001
0010
,
0100
0000
0001
0010
0001
0000
0010
0100
,
0100
0000
0010
1000
1000
0000
0010
0000
,
0110
1001
0110
0010
,
0010
0000
0100
0000
0001
0010
0100
0000
,
1000
0100
0010
0001
,
0100
0000
1000
0100
0100
0000
0010
0000
,
0100
0000
0001
0010
0010
0000
0100
0000
,
0010
1000
1000
0000
0100
0001
0001
0000
,
0010
0000
0100
0000
0001
0000
1000
0010
,
0010
0000
0100
0001
0001
0000
0010
0000
,
1001
0110
1001
0010
,
0020
0000
0030
0100
,
0100
0000
0001
0000
0010
0100
1000
0000
,
0100
0000
0010
0000
1000
0100
0010
0000
,
0001
0010
0100
0000
0010
0000
0110
0000
,
1000
1000
0001
0001
,
0110
0000
1000
0001
1000
0000
0010
0000
,
0100
0000
0010
0000
1000
0100
0010
0000
,
0001
0010
0100
0000
0010
0000
0110
0000
,
1000
1000
0001
0001
,
0010
0000
1000
0000
0100
0000
0001
0010
,
0100
0010
1000
0010
,
0100
0100
0001
0000
0010
0000
1000
0000
,
0010
0000
0100
0000
0001
0000
1000
0010
,
1000
0000
0100
0000
1000
0000
0010
0100
,
0010
0001
0100
0010
,
1000
0001
1000
0000
0010
0000
0100
0000
,
0001
1000
0110
0100
,
0001
0100
0001
0000
0010
0000
0100
0000
,
1000
0000
0100
0010
0100
0000
0010
0000
,
1000
0000
0001
0000
0100
1000
0100
0000
,
0001
0010
0001
0000
0100
0000
0010
0000
,
0001
0000
1000
0001
1000
0000
0010
0000
,
0100
0000
0001
0010
0001
0000
0100
0000
,
0010
1000
1002
0000
,
0013
0000
0100
0000
0010
0000
0100
1000
,
0000
0100
0000
0010
0000
0001
0010
0000
,
0100
0000
0010
0100
0010
0000
1000
0100
,
0000
0001
0000
0100
0010
0000
1000
0000
,
0001
0000
0100
0010
0010
0000
1000
0000
,
0010
0000
0100
0001
0100
0000
0010
0000
,
1000
0010
0100
0001
,
0100
0000
0010
0100
0010
0000
0010
0000
,
1000
0010
1000
0000
0001
0100
0001
0000
,
0010
0000
1000
0000
0010
0100
0010
0000
,
1000
0001
1000
0000
0010
0100
0000
1000
,
0000
0100
0000
0101
0000
0010
0100
0000
,
0010
0000
1000
0000
0001
0100
0001
0000
,
0010
0000
0100
0000
0010
1000
0010
0000
,
0100
0000
0010
0000
0100
0100
0010
0000
,
1000
0000
0100
0010
0000
0100
0000
0010
,
0000
0001
0000
0010
0000
0100
1000
0000
,
0010
0000
0100
0001
0000
0010
0000
0100
,
0000
0010
0000
1000
0010
0000
0100
0000
,
0010
0000
1000
0100
0000
0001
0000
0100
,
0000
0010
0000
1000
0000
0010
0100
0000
,
0010
0000
0010
0000
0100
0000
0001
0100
,
0001
0000
0000
0000
0010
0100
0000
0000
0110
0000
0000
0000
0000
0000
0000
0000
;

//---------------dance-single - ----------------
#NOTES:
     dance-single:
     :
     Easy:
     4:
     0.250,0.223,0.041,0.048,0.000: // measure 1
0010
0010
0100
0100
,  // measure 2
0001
0001
1000
1000
,  // measure 3
0020
0000
0130
0000
,  // measure 4
0010
0010
0100
0100
,  // measure 5
0002
0000
0000
0003
,  // measure 6
0010
0010
0100
1000
,  // measure 7
0001
0100
0010
1000
,  // measure 8
0010
0010
0100
0100
,  // measure 9
0001
1000
0010
0000
,  // measure 10
0100
1000
0100
0001
,  // measure 11
0010
0010
0010
0100
,  // measure 12
0110
0000
0010
0010
,  // measure 13
0001
0010
0100
0100
,  // measure 14
0010
1000
0010
0100
,  // measure 15
0010
1000
0010
0001
,  // measure 16
0100
1000
0010
0100
,  // measure 17
0010
1000
0001
0000
,  // measure 18
0010
0100
0010
0001
,  // measure 19
1000
1000
1000
0100
,  // measure 20
1001
0000
0010
0010
,  // measure 21
0100
0001
0100
0000
,  // measure 22
0010
0010
0100
0100
,  // measure 23
0001
1000
0002
0003
,  // measure 24
1000
0010
1000
0010
,  // measure 25
0100
0100
0110
0000
,  // measure 26
0010
0010
0100
0100
,  // measure 27
0001
1000
0002
0003
,  // measure 28
1000
0010
1000
0010
,  // measure 29
0100
1000
0001
0100
,  // measure 30
0010
1000
0100
0001
,  // measure 31
0010
0100
0010
1000
,  // measure 32
0100
0010
0100
0001
,  // measure 33
0010
0100
0010
1000
,  // measure 34
0010
0100
1000
0100
,  // measure 35
0001
0100
0010
1000
,  // measure 36
0010
0100
0010
0001
,  // measure 37
0010
0100
0010
1000
,  // measure 38
0100
0001
0010
0100
,  // measure 39
0010
0100
0010
0001
,  // measure 40
0100
0100
1000
0010
,  // measure 41
0100
0010
0100
0010
,  // measure 42
0001
0010
0100
0010
,  // measure 43
0100
0010
2000
0000
,  // measure 44
3000
0100
0010
0000
,  // measure 45
0100
0001
0200
0300
,  // measure 46
0010
0010
0100
0000
,  // measure 47
0001
0010
0100
1000
,  // measure 48
0200
0300
0010
0010
,  // measure 49
0100
0000
0001
0001
,  // measure 50
0010
0100
0010
1000
,  // measure 51
0010
0100
0010
1001
,  // measure 52
0010
0100
0001
0100
,  // measure 53
0010
0100
0010
1000
,  // measure 54
0100
0010
0001
0100
,  // measure 55
0010
0100
0001
0010
,  // measure 56
0100
0001
0010
1000
,  // measure 57
0010
0100
1000
0100
,  // measure 58
0010
1000
0001
0100
,  // measure 59
0110
1000
1000
1000
,  // measure 60
0100
0010
0100
0001
,  // measure 61
0100
1000
1000
1000
,  // measure 62
0100
0010
0001
0100
,  // measure 63
0010
1000
0001
0001
,  // measure 64
0001
0010
0100
0010
,  // measure 65
1000
1000
0001
0001
,  // measure 66
0100
0010
0110
0000
;
