#TITLE:Q&A;
#SUBTITLE:;
#ARTIST:Cherry Bullet;
#TITLETRANSLIT:;
#SUBTITLETRANSLIT:;
#ARTISTTRANSLIT:;
#CREDIT:;
#BANNER:Q&A banner.png;
#BACKGROUND:Q&A bg.png;
#LYRICSPATH:;
#CDTITLE:;
#MUSIC:Q&A.mp3;
#OFFSET:-3.500;
#SAMPLESTART:58.740;
#SAMPLELENGTH:15.000;
#SELECTABLE:YES;
#BPMS:0.000=120.060;
#STOPS:;
#BGCHANGES:;

//---------------dance-single - ----------------
#NOTES:
     dance-single:
     :
     Hard:
     8:
     0.537,0.477,0.259,0.104,0.214:
1000
0000
0100
0000
0010
0000
0000
0000
0100
0000
0001
1000
0000
0000
0100
0000
,
0010
0000
0100
0000
1000
0000
0000
0000
0010
0000
0100
0001
0000
0000
0001
0000
,
0100
0000
0010
0000
1000
0000
0001
0000
0001
0000
0000
0000
0010
0100
0010
0000
,
1000
0100
0010
0001
0010
0100
0100
0000
,
0010
0000
0100
0000
0001
0000
0000
0000
0010
0000
1000
0100
0000
0000
0010
0000
,
0100
0000
1000
0000
0001
0000
0000
0000
0010
0000
0100
0010
0000
0000
0010
0000
,
0001
0000
0010
0000
0100
0000
1000
0000
1000
0000
0000
0000
0100
0010
0100
0000
,
0010
0001
1000
0100
0010
0000
0100
0000
,
0002
0000
0010
0000
0100
0000
1003
0100
,
0010
0100
0001
0010
1000
0010
0100
0010
,
2000
0000
0100
0000
0010
0000
3001
0010
,
0010
0000
0000
1000
0000
0000
0001
0000
0000
1000
0000
0000
0010
0000
0000
0000
,
0100
0000
0001
0000
0100
0000
0000
0000
0010
0000
0010
1000
0000
0000
1000
0000
,
0010
0000
0100
0000
0100
0000
0000
0000
0001
0000
0100
0010
0000
0000
0001
0000
,
0100
0000
1000
0000
0010
0000
0100
0000
0001
0000
0000
0000
0010
0100
0010
0000
,
0001
1000
0100
0010
0001
0000
0010
0000
,
1000
0000
0000
0020
0000
0000
0130
0001
0100
0000
0010
0000
1000
0000
0000
0000
,
0100
0000
0001
1000
0000
1000
0010
0100
0001
0000
0100
0000
0010
0000
0000
1000
,
0100
0010
0001
0010
1000
0000
0100
0000
0100
0000
0100
0000
0100
0000
0010
0000
,
0200
0000
0000
0000
0300
0001
0010
0100
,
1001
0000
0000
0010
0100
0000
0010
0000
1000
0000
0000
0001
0010
0000
0100
0000
,
1000
0000
0010
0000
0100
0000
0001
1000
0000
0000
1000
0000
0100
0000
0010
0000
,
0100
0000
0000
0001
1000
0000
0010
0000
0100
0000
0000
0010
1000
0000
0100
0000
,
0001
0000
0100
0000
0010
0000
1000
0000
0001
0010
0001
0000
0010
0000
0100
0000
,
0110
0000
0000
1000
0001
0000
0010
0000
0100
0000
0000
0001
1000
0000
0010
0000
,
1000
0000
0100
0000
0001
0000
0100
0010
0000
0000
0010
0000
0010
0000
0100
0000
,
0001
0001
0010
0100
1000
0000
0100
0010
,
0100
0000
1000
0000
0100
0000
0200
0000
0000
0000
0310
0000
0010
0000
0100
0001
,
0000
0000
0020
0000
0000
0030
1000
0000
0100
0000
0001
0000
1000
0000
0000
0000
,
0011
0000
0110
0000
1100
0000
0110
0000
1001
0000
0010
0000
0100
0000
0001
1000
,
0000
2000
0000
3010
0100
0001
1000
0000
,
1100
0000
0110
0000
0011
0000
0110
0000
1001
0000
0010
0000
0100
0000
1000
0100
,
0000
0200
0000
0310
1000
0001
0100
0000
,
0110
1001
0110
1001
0110
0000
0010
0100
,
0001
0010
1000
0100
0010
0000
0100
1000
,
0010
0000
0100
0000
0001
0000
0001
0000
0110
0000
0000
1100
0000
0000
0110
0000
,
0010
0000
0000
0100
0000
0000
0001
0000
0000
0000
0100
0000
0010
0000
0000
0000
;

//---------------dance-single - ----------------
#NOTES:
     dance-single:
     :
     Medium:
     6:
     0.356,0.310,0.052,0.065,0.026:
1000
0000
0010
0000
0100
0010
0100
0000
,
0001
0000
0010
0000
0001
0010
0001
0000
,
0100
0000
0010
1000
0010
0000
0100
0000
,
1000
0000
0010
0100
0010
0000
0200
0000
,
0310
0000
1000
0000
0001
0010
0001
0000
,
0100
0000
0010
0000
0001
1000
0001
0000
,
0010
0000
0100
1000
0100
0000
0010
0000
,
0100
0000
0100
0001
0100
0000
0010
0000
,
2000
0000
0100
3100
,
0010
0000
0100
0000
0001
0010
0100
0000
,
0002
0000
0010
0013
,
0010
0000
0100
0010
0000
0010
0100
0000
,
0001
1000
0001
0000
0100
0000
0010
0000
,
1000
0100
0100
0000
0010
0000
0100
0000
,
0001
0000
1000
0001
1000
0000
0010
0000
,
0100
0000
0001
0010
0001
0000
0110
0000
,
1000
0000
0010
0000
0100
1000
0100
0000
,
0010
0000
0100
0000
0001
0100
0001
0000
,
0010
0000
1000
0000
0010
0010
0010
0010
,
0220
0030
0300
0010
,
1001
0000
0000
0000
0010
0000
0000
0000
0001
0000
0000
0000
0100
0000
0000
1000
,
0000
0100
0010
0100
0010
0000
0001
0000
,
1000
0000
0000
0000
0001
0000
0000
0000
0100
0000
0000
0000
0001
0000
0000
1000
,
0000
0000
0010
0000
0100
0010
0100
0000
,
1000
0000
0000
0000
0100
0000
0000
0000
0010
0000
0000
0000
0001
0000
0000
1000
,
0000
0010
0100
0010
0100
0000
0001
1000
,
0001
0000
1000
0001
1000
0000
0010
0000
,
0100
0000
0001
1000
0000
1000
0100
0010
,
0001
0000
0010
0000
0100
0100
0100
0000
,
0010
0010
0010
0010
0001
0000
0010
0000
,
0100
0000
0010
0000
1000
1000
1000
0000
,
0100
0100
0100
0100
1000
0000
0100
0000
,
0010
0000
0100
0000
0001
0001
0001
0000
,
0010
0010
0010
0010
0100
0000
0010
0100
,
0010
0000
1000
0001
1000
0000
0010
0000
,
0100
0000
0000
0000
0001
0000
0000
0000
0010
0000
0000
1000
0000
0000
0010
0000
,
0100
0010
0100
1001
;

//---------------dance-single - ----------------
#NOTES:
     dance-single:
     :
     Easy:
     3:
     0.306,0.334,0.285,0.052,0.000: // measure 1
0010
0010
0100
0001
,  // measure 2
1000
1000
0010
0100
,  // measure 3
0001
0010
0100
0010
,  // measure 4
1000
0100
0010
0200
,  // measure 5
0301
0001
0010
1000
,  // measure 6
0010
0010
1000
0100
,  // measure 7
0001
1000
0010
0100
,  // measure 8
0001
0001
0001
0010
,  // measure 9
2000
0000
0000
3000
,  // measure 10
0100
0010
0100
1000
,  // measure 11
0002
0000
0000
0003
,  // measure 12
0010
0010
0100
0010
,  // measure 13
1000
0100
0010
0010
,  // measure 14
0100
0100
0001
0010
,  // measure 15
1000
0010
0100
0010
,  // measure 16
1000
0001
0010
1000
,  // measure 17
0100
0100
0010
0010
,  // measure 18
1000
1000
0001
0001
,  // measure 19
0010
0100
0010
0010
,  // measure 20
0010
0000
0000
0100
,  // measure 21
1001
0110
0010
1000
,  // measure 22
0010
0100
0001
0100
,  // measure 23
0110
1001
0010
1000
,  // measure 24
0100
1000
0010
0100
,  // measure 25
1100
0011
0100
0010
,  // measure 26
0100
0001
0010
1000
,  // measure 27
0010
0010
0100
0001
,  // measure 28
0100
0020
0000
0130
,  // measure 29
0100
0010
1100
1100
,  // measure 30
0110
0110
0110
0010
,  // measure 31
0100
0001
0011
0011
,  // measure 32
1001
1001
1001
0010
,  // measure 33
0100
1000
0110
0110
,  // measure 34
0101
0101
0101
0010
,  // measure 35
1000
0010
0010
0100
,  // measure 36
0001
0100
0010
1000
,  // measure 37
0010
0010
0010
0110
;
