#TITLE:Pretend;
#SUBTITLE:;
#ARTIST:SUZY;
#TITLETRANSLIT:;
#SUBTITLETRANSLIT:;
#ARTISTTRANSLIT:;
#CREDIT:;
#BANNER:Pretend banner.png;
#BACKGROUND:Pretend bg.png;
#LYRICSPATH:;
#CDTITLE:cdtitle.png;
#MUSIC:Pretend.mp3;
#OFFSET:-6.540;
#SAMPLESTART:60.620;
#SAMPLELENGTH:15.000;
#SELECTABLE:YES;
#BPMS:0.000=86.040;
#STOPS:;
#BGCHANGES:;

//---------------dance-single - ----------------
#NOTES:
     dance-single:
     :
     Hard:
     6:
     0.311,0.301,0.056,0.102,0.395:
2010
0000
3001
0020
0030
0100
0010
0000
,
0001
0010
0100
2000
0000
0000
3001
0000
,
1001
0000
0010
0100
0000
0100
0010
0000
,
1000
0100
0010
0001
,
0102
0000
0013
1000
0000
1000
0010
0000
,
1000
0000
0000
0100
0000
0000
0010
0000
0000
0002
0000
0000
0000
0000
0000
0000
0000
0000
0003
0000
0100
0000
0000
0000
,
0110
0000
0001
0100
0000
0100
1000
0000
,
0001
0000
0000
0000
0010
0000
0000
0000
0100
0000
0010
0001
0000
0010
0000
0000
,
0100
0000
0000
0000
0000
0000
0000
0000
0010
0000
1000
0010
0000
0001
0000
0000
,
0100
0000
0000
0000
0000
0000
0000
0000
0000
0000
0000
0000
0000
0000
0001
0000
0000
0010
0000
1000
0000
0000
0010
0000
,
1000
0000
0000
0000
0000
0000
0000
0000
0000
0000
0000
0000
0000
0000
0000
0000
0000
0000
0000
0000
0000
0100
0000
0000
0010
0000
0000
0000
0000
0000
0001
0000
0000
0010
0000
0000
0000
0000
0000
1000
0000
0000
1000
0000
0000
0000
0010
0000
,
0000
0000
0100
0000
0000
0000
0000
0001
0010
0000
1000
0100
0000
0010
0000
0000
,
0001
0000
0000
0000
0010
0000
0000
0100
0100
0000
0001
0010
0000
1000
0000
0000
,
0010
0000
0000
0000
0000
0000
0000
0000
0000
0000
0000
0000
1000
0000
0000
0000
0000
0000
0000
0000
0000
0010
0000
0000
0001
0000
0000
0000
0000
0000
0100
0000
0000
0000
0010
0000
0000
0000
0000
0000
1000
0000
0000
0000
0000
0000
0000
0000
,
0100
0000
0000
0000
0001
0000
0000
0100
0010
0000
1000
0010
0000
0100
0000
0010
,
0100
0000
0000
0000
0000
0000
0010
0000
0000
0000
0000
0000
0000
0000
0000
0000
0000
0000
0000
0000
0000
0001
0010
0100
,
1000
0000
0010
0000
0100
0000
0001
0010
0000
0010
0000
1000
0100
0001
0010
0100
,
0000
0000
0100
0000
0010
0000
0001
1000
0000
0100
0000
0000
0000
0000
0000
0001
,
0010
0000
0100
0000
0010
0000
1000
0000
0010
0000
0100
0000
0001
0000
0100
0010
,
0100
0000
0000
0020
0000
0000
0030
0000
,
1001
0000
0000
0000
0010
0000
0100
1000
0100
0000
0001
0010
0000
0010
0000
0100
,
0000
0000
0000
0000
0010
0000
0000
1000
0100
0000
0001
0010
0000
0100
0000
0100
,
0000
0000
0000
0000
0100
0000
0000
0001
0010
0000
0100
1000
0000
0010
0000
0010
,
0000
0000
0000
0000
0100
0000
0000
0000
0001
0000
0000
1000
0000
0001
0000
0000
,
0100
0100
0000
0100
0000
0000
0000
0000
0010
0000
0000
0010
0000
0001
0010
0100
,
2000
0000
0000
0000
0000
0000
3000
0010
0010
0000
0100
0001
0000
0001
0000
0000
,
0010
0100
0200
0000
0000
0000
0000
0000
,
0300
0000
0000
0000
0000
0000
0010
0100
0010
0000
1000
0001
0000
0010
0000
0000
,
0100
0000
0000
0000
0010
0000
0000
1000
0100
0000
0001
0010
0000
1000
0000
0010
,
0000
0000
0000
0000
0100
0000
0000
0001
0010
0000
0100
1000
0000
0100
0000
0001
,
0000
0000
0000
0000
0000
0100
0010
0100
0010
0000
0001
1000
0000
0010
0000
0100
,
0000
0000
0000
0000
0000
0000
0000
0000
1000
0000
0000
0001
0000
1000
0000
0000
,
0010
0010
0000
0010
0000
0000
0000
0000
0100
0000
0000
0001
0000
0010
0100
1000
,
0020
0000
0000
0000
0030
0000
0000
1000
0100
0000
0001
0100
0000
0020
0000
0030
,
0000
2000
0000
0000
3000
0000
0010
0000
,
0110
0000
0001
1000
0000
1000
0001
0000
,
0010
0000
0000
0000
;

//---------------dance-single - ----------------
#NOTES:
     dance-single:
     :
     Medium:
     4:
     0.214,0.218,0.047,0.056,0.000:
0010
0100
0001
0001
,
0100
0010
1000
1000
,
0100
1000
0010
0010
,
0100
0001
0100
0100
,
0002
0000
0013
0010
,
0200
0000
0301
0001
,
2000
0000
3100
0100
,
0020
0000
1030
1000
,
0010
0000
0001
0010
,
0100
0000
0010
1000
,
0010
0000
0100
1000
,
0100
0000
0001
0010
,
0100
1001
0010
0100
,
0001
1100
0010
1000
,
0100
0011
0010
0100
,
0010
0100
0000
0000
,
0011
0000
0010
0000
0100
1000
0100
0000
,
0010
0000
0100
0000
1000
0010
1000
0000
,
0010
0000
0100
0000
0001
0010
0100
2000
,
3000
0000
0010
0000
0010
0100
0010
0100
,
0010
0000
1000
0000
0010
0000
0100
0001
,
0100
0000
0001
0000
0010
0000
1000
0010
,
1000
0000
0010
0000
0100
0000
0001
0010
,
0001
0000
0100
0000
0010
0000
0100
0010
,
0001
0000
0010
0000
1000
0000
0100
1000
,
0100
0000
0010
0000
0100
0001
0100
0000
,
0010
0010
1000
1000
,
0100
0001
0100
0010
,
1001
0000
0010
0000
0001
0000
0100
1000
,
0010
0000
0100
0000
1000
0000
0001
0100
,
0010
0000
0100
0000
0001
0000
0010
1000
,
0010
0100
0001
0010
,
0100
1000
0100
0000
0010
0000
0100
0001
,
0100
0010
0001
0100
,
0010
2000
0000
0000
0000
0000
0010
3000
,
0010
0000
0100
0010
0000
0000
0010
0000
,
0100
0000
0000
0000
;

//---------------dance-single - ----------------
#NOTES:
     dance-single:
     :
     Easy:
     2:
     0.165,0.167,0.037,0.037,0.000: // measure 1
0100
0000
0001
0010
,  // measure 2
0100
0000
0001
1000
,  // measure 3
0100
0000
0010
1000
,  // measure 4
0100
0000
1000
0001
,  // measure 5
1000
0000
0010
0100
,  // measure 6
0001
0000
0100
0010
,  // measure 7
1000
0000
0001
0100
,  // measure 8
0001
0000
0010
0010
,  // measure 9
0010
0000
1000
1000
,  // measure 10
1000
0000
0100
0100
,  // measure 11
0100
0000
0001
0001
,  // measure 12
0001
0000
0100
0010
,  // measure 13
0100
0001
0010
1000
,  // measure 14
1000
0001
0100
0010
,  // measure 15
1000
0001
0010
0001
,  // measure 16
0010
0100
0000
0000
,  // measure 17
0100
0100
0010
0010
,  // measure 18
1000
1000
0001
0001
,  // measure 19
0010
0100
1000
0100
,  // measure 20
0010
0000
0010
0010
,  // measure 21
0110
0000
1000
0001
,  // measure 22
1001
0000
0010
0100
,  // measure 23
1100
0000
0100
0010
,  // measure 24
0011
0000
0100
0100
,  // measure 25
0020
0000
1030
0001
,  // measure 26
2000
0000
3010
0001
,  // measure 27
0010
0010
1000
0100
,  // measure 28
0001
0100
0010
1000
,  // measure 29
0001
0000
0010
0100
,  // measure 30
0001
0000
0010
1000
,  // measure 31
0010
0000
0100
1000
,  // measure 32
0100
0000
0010
0010
,  // measure 33
0200
0000
0301
1000
,  // measure 34
0020
0000
0130
0100
,  // measure 35
0001
0000
0100
0000
,  // measure 36
1000
0100
0010
0001
,  // measure 37
0010
0000
0000
0000
;
