#TITLE:Pink Label;
#SUBTITLE:;
#ARTIST:LAYSHA;
#TITLETRANSLIT:;
#SUBTITLETRANSLIT:;
#ARTISTTRANSLIT:;
#CREDIT:;
#BANNER:Pink Label banner.png;
#BACKGROUND:Pink Label bg.png;
#LYRICSPATH:;
#CDTITLE:;
#MUSIC:Pink Label.mp3;
#OFFSET:-9.460;
#SAMPLESTART:52.820;
#SAMPLELENGTH:15.000;
#SELECTABLE:YES;
#BPMS:0.000=105.060,44.000=129.000,48.000=131.900,146.000=132.200,184.750=118.000,186.000=113.000,187.000=105.000,188.000=82.000,189.500=105.100;
#STOPS:80.000=0.920
,189.500=0.300
,190.000=0.300
,190.500=0.300
;
#BGCHANGES:;

//---------------dance-single - ----------------
#NOTES:
     dance-single:
     :
     Hard:
     9:
     0.559,0.486,0.297,0.211,0.383:
1001
0000
0001
0000
0010
0100
1000
0100
0010
0000
0100
0001
0000
0001
0000
0000
,
0110
0000
1000
0000
0100
0000
0010
0100
0000
0000
1000
0000
1000
0001
1000
0000
,
0010
0000
0100
0000
0001
0010
1000
0010
0002
0000
0000
1000
0000
1003
0000
0000
,
0100
0000
1000
0100
1000
0000
0010
0002
0000
0000
0000
0000
0013
0000
0100
0010
,
0100
0000
0010
0000
1000
0000
0001
0000
1000
0000
0000
0010
0000
0000
1000
0100
,
0010
0000
0001
0000
0100
0000
0010
0000
0001
0000
1000
0010
0000
0000
0100
1000
,
0100
0000
0001
0100
0000
0000
1001
0000
0000
0000
0010
0000
0010
0000
0100
0000
,
0002
0000
0013
0100
2000
0000
3100
0000
,
0010
0000
0100
0000
0001
1000
0010
0100
0010
0000
0010
0100
0010
0000
1000
0020
,
0000
0000
0000
0000
0130
0000
0001
0100
0001
0000
0010
0100
1000
0000
0100
0020
,
0000
0000
0130
0001
0001
1000
0001
0010
,
1000
0101
0100
0110
0010
1001
1000
0001
,
1000
0000
0000
0000
0001
0010
0100
1000
,
0110
0000
1001
0000
0010
0001
0001
0000
,
1000
0100
0010
0001
0010
0100
0020
0000
,
1030
0100
0100
0010
0100
0001
0100
0000
,
0001
0010
0100
0010
0010
0001
0100
0000
,
0010
0000
1000
0000
0001
0000
1000
0020
0000
0000
0130
0000
0100
0000
0001
0000
,
0100
0000
0010
0000
1000
0000
0001
2000
0000
0000
3100
0000
0120
0000
0000
0000
,
0031
0100
0010
1000
0110
0000
1001
0000
,
0110
1001
0011
1100
,
0010
0100
0100
0000
0110
1001
1000
0100
,
0010
0000
1000
0001
0000
0002
0000
0000
0013
0000
0100
0010
0000
0010
0000
0100
,
1000
0000
1000
0100
0000
0100
0000
0010
0100
0000
0101
0000
0010
0000
0010
0000
,
0100
0000
0010
1000
0000
2000
0000
0000
3010
0000
0000
0000
0100
0000
0000
0000
,
0011
0010
1100
0000
0110
0100
0010
0100
,
0101
0000
1000
0010
0000
0020
0000
0000
0130
0000
0001
0000
1000
0000
0010
0000
,
0100
0000
0010
1000
0000
0000
0000
0000
0010
0000
0100
0001
0000
0001
0000
0000
,
1001
0010
0200
0000
0310
0001
0010
0100
,
0010
0000
1000
0001
1000
0000
0000
0000
0001
0000
0010
0000
0100
0000
1000
0000
,
0200
0000
1300
0000
0010
0100
0001
1000
,
0010
0000
0100
0001
0100
0000
0000
0000
1000
0000
0100
0000
0010
0000
0001
0000
,
0010
0000
0100
0100
0200
0000
0000
0000
0310
0000
1000
0000
0001
0000
0100
1000
,
0100
0000
0010
0200
0000
0000
0300
0000
0001
0000
1000
0000
0001
0000
1000
0000
,
0010
0000
0001
0000
0020
0000
0000
0000
0031
0000
0100
0000
0010
0000
1000
0010
,
1000
0000
0001
0200
0000
0000
0310
0000
0010
0000
1000
0000
0001
0000
1000
0000
,
0010
0000
0010
0000
0100
0000
0000
0000
0001
0010
0000
0000
0010
0000
0100
0000
,
0000
1000
0000
0000
0100
0000
0010
0100
0020
0000
0000
0000
0031
0000
0000
0000
,
1000
0100
0010
0001
0110
0100
0001
0100
,
0010
1000
0010
0100
1000
0001
0010
0100
,
0010
0000
1000
0000
0010
0000
0100
0000
0011
0000
0010
0100
0000
0100
0000
0010
,
1000
0000
0100
0001
0000
0001
0000
0010
0100
0000
0100
0000
0001
0000
0001
0000
,
1000
0000
0010
0100
0000
0200
0000
0000
0310
0000
0000
0000
1000
0000
0000
0000
,
0010
0100
0101
0000
0010
0100
1000
0100
,
0010
0000
1000
0001
0000
0002
0000
0000
0013
0000
1000
0000
0100
0000
0010
0000
,
0110
0000
1000
0002
0000
0000
0013
0000
1000
0000
0001
0010
0000
1000
0000
0000
,
0001
0000
0010
2000
0000
0000
3000
0000
0011
0000
0000
0000
1100
0000
0000
0000
,
0110
0000
0000
0001
0000
0000
1000
0000
0100
0000
0010
0000
0001
0001
0001
0001
,
0001
0000
0010
0000
0100
0010
0000
0010
0000
1000
0000
0001
0100
0000
0010
0000
,
1010
0000
0100
0000
0001
0100
0000
0100
0000
0000
0010
1000
0010
0100
0010
0000
,
1001
0000
0010
0000
0100
0001
0000
0001
0000
0010
0000
0100
0010
0000
0010
0000
,
1000
0000
0001
0000
0100
0010
0000
0010
0000
0000
1001
0000
0100
0020
0000
0000
,
0130
0000
1000
0000
0001
1000
0000
0100
0000
0010
0000
0001
0100
0000
0010
0000
,
0011
0000
0100
0000
1000
0010
0000
0010
0000
0000
0100
0001
1000
0010
0100
0010
,
0100
0000
1000
0000
0001
0010
0000
0100
0000
0010
0000
1000
0010
0000
0100
0000
,
1001
0000
0100
0000
1010
0000
0100
0000
1100
0000
0010
0000
0100
0001
0000
0000
,
2002
0000
3003
0000
;

//---------------dance-single - ----------------
#NOTES:
     dance-single:
     :
     Medium:
     6:
     0.380,0.354,0.196,0.086,0.000:
1000
0000
0100
0001
0001
0000
0100
0010
,
0100
0000
0001
0010
0200
0000
0310
0000
,
1000
0000
0010
0100
0010
0000
0001
0001
,
0000
0010
0100
0010
2000
0000
3100
0000
,
0010
0000
1000
0000
0010
0100
0010
0000
,
1000
0000
0100
0000
0001
0010
0001
0000
,
1000
0100
0020
0000
0130
0000
1000
0000
,
0011
0010
0110
0100
,
1000
0000
0100
0010
0010
0000
0001
0010
,
0100
0000
0010
1000
1000
0000
0100
0010
,
0002
0000
0000
0013
0100
1000
0000
0010
,
0100
0000
0001
0000
0100
0010
0100
0010
,
0100
0000
0000
0000
0010
0100
0010
0100
,
0010
0000
0110
0000
0001
1000
1000
0000
,
0010
0100
1000
0000
1000
0100
0020
0000
,
0130
0000
0001
0000
0100
0010
0001
0000
,
0010
0000
0100
0000
0010
1000
0001
0000
,
0100
0000
0010
0001
0020
0000
0130
0000
,
0010
0000
1000
0010
2000
3000
0110
0000
,
1000
0100
0010
0000
0001
0000
0001
0000
,
0110
0100
1001
0110
,
1001
1000
1000
0000
0010
0100
0010
0100
,
0010
0001
0010
0010
,
0100
0000
1000
0000
0010
0100
1000
0000
,
0100
0010
0001
0000
0011
0000
1100
0000
,
0011
0010
0010
0000
0100
0010
0100
0010
,
0100
0000
1000
0000
0100
0010
0100
0000
,
0001
1000
0001
0000
0010
0100
1000
0000
,
0010
0020
0130
0100
,
0001
0010
0001
0000
1000
0010
1000
0010
,
1000
0100
0010
1000
,
0010
0100
0010
0000
1000
0001
1000
0001
,
1000
1000
1001
0000
0010
0000
0100
0000
,
0001
0100
0001
0000
1000
0001
1000
0001
,
1000
0010
0100
0010
,
0100
0010
0001
0000
0100
0010
0100
0010
,
0100
0000
0001
0000
1000
0000
0010
0100
,
0000
0100
0010
0000
0011
0000
1100
0000
,
0010
0100
0010
0100
0020
0000
0100
0000
,
0100
0100
0100
0000
0100
0100
0100
0000
,
0130
0000
1000
0000
0100
0001
0100
0000
,
0010
1000
0010
0000
0100
0010
0001
0000
,
0100
0110
1001
0110
,
1001
0001
0001
0000
0010
0100
0010
0100
,
0010
0000
0001
0000
0010
0100
0001
0000
,
0010
0100
1000
0000
0100
0010
0001
0000
,
1000
0010
1000
0000
0110
0000
1001
0000
,
0110
0000
0000
1000
0100
0010
0001
0001
,
0001
0000
0010
0000
0100
0001
0100
0000
,
0010
1000
0010
0000
0100
0000
0100
0110
,
0010
0000
0001
0000
1000
0010
1000
0000
,
0010
0100
0010
0000
1000
0001
0001
0000
,
0100
0010
1000
0000
0100
0001
0100
0000
,
0010
1000
0010
0000
0100
0000
0001
0110
,
1000
0000
0100
1000
0010
0000
0001
0010
,
1000
0000
0110
0000
0001
0001
0010
0000
,
0220
0000
0330
0000
;

//---------------dance-single - ----------------
#NOTES:
     dance-single:
     :
     Easy:
     4:
     0.316,0.311,0.383,0.133,0.000: // measure 1
1000
0100
0010
0001
,  // measure 2
0100
0010
0002
0003
,  // measure 3
0010
0100
0010
0010
,  // measure 4
0001
0100
0020
0030
,  // measure 5
1000
0100
0001
0001
,  // measure 6
0100
0010
1000
1000
,  // measure 7
0010
0100
2000
3000
,  // measure 8
0100
0100
0010
0010
,  // measure 9
1000
0100
0010
0001
,  // measure 10
0001
0010
0100
1000
,  // measure 11
0020
0030
0100
0100
,  // measure 12
0110
0011
1010
1001
,  // measure 13
0110
0000
0010
0010
,  // measure 14
1001
0100
0011
0011
,  // measure 15
0100
0010
1100
1100
,  // measure 16
0010
0100
1001
1001
,  // measure 17
0100
0010
0101
1001
,  // measure 18
1000
0100
2000
3010
,  // measure 19
0100
0001
0100
0110
,  // measure 20
0010
1000
0001
0100
,  // measure 21
0110
1001
0010
0010
,  // measure 22
0100
0001
1010
1001
,  // measure 23
0110
1001
0010
0010
,  // measure 24
0100
0100
0001
0010
,  // measure 25
0100
1000
1001
0010
,  // measure 26
1000
1000
0110
0011
,  // measure 27
1100
1001
0010
0010
,  // measure 28
0100
0100
0001
0010
,  // measure 29
0100
2000
3100
0010
,  // measure 30
0100
0200
0310
0010
,  // measure 31
0001
1000
0010
0010
,  // measure 32
0100
0002
0013
0100
,  // measure 33
1000
2000
3100
0010
,  // measure 34
0100
2000
3010
0010
,  // measure 35
0100
0001
0100
0010
,  // measure 36
1000
0020
0130
0001
,  // measure 37
0010
0100
0010
0010
,  // measure 38
0110
1001
0020
0000
,  // measure 39
0130
0100
0020
0100
,  // measure 40
0001
0100
1000
1000
,  // measure 41
0130
1001
0010
0010
,  // measure 42
0001
0001
0100
0010
,  // measure 43
1000
0010
0110
1000
,  // measure 44
0010
0010
0101
1001
,  // measure 45
0110
1001
0010
0010
,  // measure 46
0100
0002
0013
1000
,  // measure 47
0010
2000
3010
0100
,  // measure 48
0001
1000
0000
0000
,  // measure 49
0110
1001
0010
0010
,  // measure 50
1100
0011
0100
0010
,  // measure 51
0110
0011
0010
0100
,  // measure 52
1100
0011
0100
1000
,  // measure 53
1010
0101
0010
0010
,  // measure 54
1100
1010
0100
0001
,  // measure 55
0110
1001
0010
0001
,  // measure 56
0100
1000
0010
0001
,  // measure 57
2002
0000
0000
3003
;
