#TITLE:Party;
#SUBTITLE:;
#ARTIST:Girls' Generation (SNSD);
#TITLETRANSLIT:;
#SUBTITLETRANSLIT:;
#ARTISTTRANSLIT:;
#CREDIT:;
#BANNER:Party banner.png;
#BACKGROUND:Party bg.png;
#LYRICSPATH:;
#CDTITLE:;
#MUSIC:Party.mp3;
#OFFSET:-19.520;
#SAMPLESTART:49.980;
#SAMPLELENGTH:15.000;
#SELECTABLE:YES;
#BPMS:0.000=122.980;
#STOPS:;
#BGCHANGES:;

//---------------dance-single - ----------------
#NOTES:
     dance-single:
     :
     Hard:
     6:
     0.369,0.359,0.212,0.130,0.006:
1000
0002
0000
0003
0100
0010
0100
1000
,
0000
0001
0100
0000
0010
0000
1000
0010
,
1000
0000
0001
0010
0001
1000
0020
0000
,
0130
0100
0000
0001
0001
1000
0010
0100
,
0010
2000
0000
3000
0010
0001
0010
1000
,
0000
0100
0010
0000
0010
0000
0100
0001
,
0100
0010
1000
0010
0100
0001
0010
0200
,
0000
0310
0000
0010
0000
1000
0100
0010
,
0011
0000
0011
0000
0010
0100
0010
1000
,
1100
0000
1100
0000
0010
0000
0001
1000
,
0010
0010
0010
0010
0110
0000
1000
0001
,
0100
0100
0100
0100
0110
0001
1000
0001
,
1010
0000
1010
0000
0100
0010
1000
0001
,
0101
0000
0101
0000
0010
1000
0100
1000
,
0000
0001
0010
0000
0010
1000
0100
0001
,
0000
1000
0001
0000
1001
0010
0100
0000
,
1010
0000
1100
0000
1001
0000
0010
0100
,
0010
0100
0000
2000
0000
0100
0100
0000
,
3010
0000
0001
0100
0010
1000
0000
1001
,
0000
0010
0010
0000
0100
0010
0100
0000
,
1001
0000
0110
0000
1001
0000
0010
1000
,
0010
0200
0000
0310
0000
0001
1000
0020
,
0000
0100
0100
1000
0130
0000
0010
0002
,
0000
0010
0010
0100
0013
0000
1000
0000
,
0010
0010
0000
0100
1000
1000
0000
0100
,
0001
0001
0000
0001
0010
0100
1000
0100
,
0010
0010
0000
0100
0010
0010
0000
1000
,
0001
0001
0000
1000
0100
0010
0001
0010
,
0100
0100
0000
1000
0010
0010
0000
0100
,
0001
0001
0000
0100
0010
1000
0100
2000
,
0000
0100
0100
0010
3100
0000
1000
0200
,
0000
0010
0010
0001
0320
0000
0000
0000
,
0000
0000
0000
0130
0000
0000
0000
0000
0000
0000
0000
0000
0000
0000
0000
0000
0000
0000
0000
0000
0000
0000
0000
0000
0000
0000
0000
0000
0000
0000
0000
0000
0000
0000
0000
0000
0000
0000
0000
0000
0000
0000
0000
0000
0000
0000
0000
0000
0000
0000
0000
0000
0000
0000
0000
0000
0000
0000
0000
0000
0000
0000
0000
0000
;

//---------------dance-single - ----------------
#NOTES:
     dance-single:
     :
     Challenge:
     8:
     0.463,0.415,0.353,0.236,0.130: // measure 1
1001
2002
0000
3003
0010
1000
0001
1000
,  // measure 2
0000
0010
0100
0000
0101
0000
1000
0010
,  // measure 3
2000
0000
3001
0010
0001
1000
0020
0000
,  // measure 4
0130
0000
1000
0000
0000
0000
0001
0100
0001
0000
1000
0000
0001
0000
0100
0000
,  // measure 5
0011
0012
0000
0003
0100
0010
0001
1000
,  // measure 6
0000
0000
0100
0000
1010
0000
0000
0000
0120
0000
0000
0030
0100
0000
0001
0000
,  // measure 7
1000
0001
1000
0010
0100
0001
0010
1200
,  // measure 8
0000
0301
0000
0100
0000
0001
0100
0010
,  // measure 9
1001
0000
0011
0000
0010
0001
0010
1000
,  // measure 10
1010
0000
1100
0000
0010
0000
0001
1000
,  // measure 11
0110
0010
0110
1000
0110
0000
1000
0001
,  // measure 12
0100
0110
0100
0110
0100
0001
1000
0010
,  // measure 13
1100
0000
1010
0000
0100
0010
1000
0001
,  // measure 14
0101
0000
0101
0000
0020
1030
0100
2000
,  // measure 15
0000
3001
0010
0100
0010
1000
0100
0002
,  // measure 16
0000
0000
1003
0000
1000
0000
0000
0000
1001
0000
0110
0000
0010
0000
0000
1000
,  // measure 17
0100
0000
0000
0100
0010
0000
0000
0010
0001
0000
0000
0000
0010
0000
1000
0000
,  // measure 18
0010
0001
0000
0010
0001
1000
0100
0000
,  // measure 19
0110
1000
0001
0100
0010
1001
0000
1001
,  // measure 20
0000
0000
0010
0100
0010
0000
0020
0000
1000
0000
1000
0000
0130
0000
0000
0001
,  // measure 21
0010
0000
0000
0010
0100
0000
0000
0100
1000
0000
0000
0000
0001
0000
1000
0000
,  // measure 22
0010
1000
0000
0001
0000
0001
1000
0010
,  // measure 23
0001
0000
1000
0000
0100
0000
0010
0000
1000
0000
0100
0001
0100
0000
0001
0000
,  // measure 24
1000
0000
0100
0000
0001
0000
0100
0000
0010
0000
0100
1000
0100
0000
0001
0010
,  // measure 25
0001
0000
0020
0000
0000
0000
1030
0100
1000
0000
2000
0000
0000
0000
3100
0010
,  // measure 26
0100
0000
0200
0000
0000
0000
0301
0000
0010
0000
0100
0000
1000
0000
0100
0001
,  // measure 27
0100
0000
0020
0000
0000
0000
1030
0001
1000
0000
0200
0000
0000
0000
0310
0001
,  // measure 28
0010
0000
2000
0000
0000
0000
3010
0000
1000
0000
0100
0000
0001
0000
0010
1000
,  // measure 29
0100
0000
0020
0000
0000
0000
1030
0100
0001
0000
0002
0000
0000
0000
0103
0010
,  // measure 30
1000
2000
0000
3110
0110
0110
0001
0001
,  // measure 31
0010
0000
1000
0000
0100
0000
0010
0000
0100
0000
0001
1000
0001
0000
0010
0000
,  // measure 32
1000
0000
0100
0000
0010
0000
0001
0000
0010
0000
0100
1000
0100
0000
0000
0000
,  // measure 33
0000
0000
0000
0110
0000
0000
0000
0000
0000
0000
0000
0000
0000
0000
0000
0000
0000
0000
0000
0000
0000
0000
0000
0000
0000
0000
0000
0000
0000
0000
0000
0000
0000
0000
0000
0000
0000
0000
0000
0000
0000
0000
0000
0000
0000
0000
0000
0000
0000
0000
0000
0000
0000
0000
0000
0000
0000
0000
0000
0000
0000
0000
0000
0000
;

//---------------dance-single - Amerie/Aidan----------------
#NOTES:
     dance-single:
     Amerie/Aidan:
     Medium:
     5:
     0.293,0.264,0.118,0.189,0.006:
0010
0010
0000
0000
0100
0000
0010
0000
,
1000
0000
0001
0000
1000
0000
0010
0010
,
0100
0000
0001
0000
1000
0001
2000
0000
,
3100
0000
0010
0000
0010
0000
0100
0100
,
0010
2000
0000
3000
0001
0000
0010
0000
,
0100
0001
0100
0000
0010
0000
1000
0000
,
0001
0000
1000
0000
0010
0100
0020
0000
,
0000
0100
0130
0001
,
0010
0000
1000
0000
0010
0100
0010
0000
,
0100
0000
0001
0000
0100
0000
0001
1000
,
0010
0010
0010
0010
0020
0000
0000
0030
,
0100
0100
0100
0100
0200
0000
0000
0300
,
0001
0000
1000
0000
0100
0001
1000
0000
,
0100
0000
0010
0000
0001
0001
1000
1000
,
0000
0010
0010
0000
0010
0000
0100
0100
,
0000
1000
0001
0000
2000
0000
3100
0000
,
0110
0000
1001
0000
0110
0000
0001
1000
,
0001
1000
0000
0200
0000
0000
0310
0000
,
1000
0000
0010
0000
1000
0100
0000
0002
,
0000
0013
0100
0100
,
1001
0000
0110
0000
1001
0000
0010
1000
,
0010
1000
0000
0010
0000
0001
0000
0020
,
0000
0000
0100
0100
0130
0000
0000
0002
,
0000
0000
0010
0010
0013
0000
1000
0000
,
0001
0002
0000
0000
1003
2000
0000
0000
,
3010
0010
0000
0000
0110
0000
1001
0000
,
0100
0200
0000
0000
0310
0020
0000
0000
,
0031
0001
1010
0101
,
0010
0010
0000
1000
0010
0010
0000
1000
,
0001
0001
0000
0010
0010
0100
0000
2000
,
0000
0000
0100
0100
3100
0000
0000
0020
,
0000
0000
0100
0100
0130
0000
0001
0000
,
0000
0000
0000
0100
0000
0000
0000
0000
0000
0000
0000
0000
0000
0000
0000
0000
0000
0000
0000
0000
0000
0000
0000
0000
0000
0000
0000
0000
0000
0000
0000
0000
0000
0000
0000
0000
0000
0000
0000
0000
0000
0000
0000
0000
0000
0000
0000
0000
0000
0000
0000
0000
0000
0000
0000
0000
0000
0000
0000
0000
0000
0000
0000
0000
;

//---------------dance-single - Amerie/Aidan----------------
#NOTES:
     dance-single:
     Amerie/Aidan:
     Easy:
     3:
     0.252,0.245,0.189,0.106,0.006:
1001
0000
0100
0010
,
1000
0001
1000
0010
,
0100
0001
1000
0020
,
0130
0000
0100
0001
,
0100
0010
0001
0010
,
0100
0100
0110
1000
,
0001
0000
0001
0000
1000
0000
0010
0020
,
0000
0100
0130
0001
,
1000
1000
0010
0100
,
0001
0001
0100
0001
,
0110
0100
0110
0001
,
0110
0010
0110
1000
,
0001
1000
0100
1000
,
0100
0000
0010
0000
0002
0000
0000
1003
,
0000
0000
0010
0000
0020
0000
0000
0130
,
0000
0100
0010
1000
,
0110
1001
0110
0001
,
0010
0100
0010
0010
,
1000
0000
0010
0000
1000
0000
0001
0002
,
0000
0013
0100
0010
,
1001
0110
1001
0010
,
1000
0100
0001
0100
,
0020
0100
0130
1000
,
0002
0010
0013
1000
,
0110
0010
0110
1000
,
0100
0100
0010
0001
,
1001
1000
1001
0100
,
0001
0001
1000
0010
,
0100
0100
0000
0000
0010
0010
0000
0000
,
0001
0001
0000
0000
0010
0000
0010
0000
,
2000
0100
3100
0001
,
0020
0100
0130
0010
,
0000
0000
0000
0100
0000
0000
0000
0000
0000
0000
0000
0000
0000
0000
0000
0000
0000
0000
0000
0000
0000
0000
0000
0000
0000
0000
0000
0000
0000
0000
0000
0000
0000
0000
0000
0000
0000
0000
0000
0000
0000
0000
0000
0000
0000
0000
0000
0000
0000
0000
0000
0000
0000
0000
0000
0000
0000
0000
0000
0000
0000
0000
0000
0000
;
