#TITLE:Paradise;
#SUBTITLE:;
#ARTIST:HYOLYN;
#TITLETRANSLIT:;
#SUBTITLETRANSLIT:;
#ARTISTTRANSLIT:;
#CREDIT:;
#BANNER:Paradise banner.png;
#BACKGROUND:Paradise bg.png;
#LYRICSPATH:;
#CDTITLE:cdtitle.png;
#MUSIC:Paradise.mp3;
#OFFSET:-6.180;
#SAMPLESTART:33.080;
#SAMPLELENGTH:15.000;
#SELECTABLE:YES;
#BPMS:0.000=89.600,8.000=178.100,72.000=88.940,144.000=178.100;
#STOPS:;
#BGCHANGES:;

//---------------dance-single - ----------------
#NOTES:
     dance-single:
     :
     Hard:
     8:
     0.618,0.641,0.380,0.119,0.336:
1010
0000
0000
0101
0000
0000
1010
0000
0000
0100
0010
0001
0010
0100
0000
0000
,
0011
0000
0000
0110
0000
1000
0100
0010
0001
0000
1000
0000
0001
0000
1000
0000
,
0010
0100
0001
1000
0010
1000
0100
0001
,
0100
0010
0100
0000
1000
0100
0010
0001
,
0100
0010
1000
0100
0001
0100
0010
1000
,
0011
0110
1100
1001
,
1000
0100
0001
0100
1000
0010
0001
0010
,
0100
0001
0100
0010
1000
0010
0100
0100
,
0001
0010
1000
0100
0010
0001
1000
0010
,
1100
0000
0110
0000
0011
0000
0100
0020
,
0000
0100
0130
1000
0100
0000
0001
2000
,
0000
0100
3100
0001
0100
0000
1000
0020
,
0000
0001
0031
0100
0001
0000
0010
1000
,
0010
0100
0001
0100
0010
0000
1001
0000
,
0010
0100
1000
0100
0010
0001
0100
0020
,
0000
0130
0001
0100
0010
1000
0100
2000
,
0000
3010
0010
0100
0010
1000
0010
0100
,
0001
0010
0100
1000
,
2001
0000
3000
0000
0100
0000
0000
0001
0000
0100
0010
0000
0010
0000
1000
0100
,
0000
0100
0010
0000
1000
0000
0001
0200
0000
0000
0310
0000
0010
0000
0000
0000
,
1001
0000
0010
0000
0100
0000
0001
1000
0000
1000
0010
0000
0100
0000
0001
0100
,
0000
0100
1000
0000
0010
0000
0100
0002
0000
0000
0013
0000
0100
0000
0000
0000
,
1001
0000
1000
0000
1000
0000
0010
0100
0000
0100
0010
0000
1001
0000
0010
0001
,
0000
0001
0010
0000
0100
0000
0010
1000
0010
0000
0100
0000
0100
0000
0010
0000
,
1001
0000
0100
0000
0110
0000
1000
0001
0000
0001
1000
0000
0010
0000
0100
0010
,
0000
0010
0100
0000
0001
0000
0010
1000
0000
1000
0010
0100
0001
0100
0010
0000
,
1010
0000
0100
0000
0001
0010
0000
0010
0100
0000
0010
0000
1001
0000
0010
0000
,
0100
0000
0001
0000
1000
0010
0000
0010
0100
0000
0001
0010
0001
0000
0100
0000
,
0011
0000
0100
0000
1000
0100
0000
0100
1000
0000
0010
0001
0000
0000
0110
0000
,
1010
0000
0100
0000
0001
0100
0000
0100
0010
0000
1000
0001
1000
0000
0010
0000
,
1000
0100
1000
0100
1000
0100
0010
0001
0010
0100
0010
2000
0000
0000
0000
0000
,
3001
0010
0001
0010
0001
0010
0100
0010
1000
0010
0100
0002
0000
0000
0000
0000
,
0103
1000
0100
1000
0100
1000
0010
0100
0001
0100
0010
0200
0000
0000
0010
0000
,
0301
1100
0010
1100
0010
0001
0010
1000
,
1001
0000
0010
0000
0010
0000
0100
0000
0100
0001
0010
0100
0010
0000
0010
0000
,
1000
0000
0100
0000
0010
0000
0001
1000
0001
0000
0010
0000
0100
0000
0010
0000
,
1000
0001
0100
0010
1000
0100
1000
0001
,
0010
0001
0100
0010
1000
0001
0100
0010
,
0001
1000
0100
1000
0010
0100
0010
0001
,
1100
0110
0011
1001
,
0010
0100
0001
0010
0100
1000
0010
0100
,
0001
1000
0010
0100
0001
1000
0100
1000
,
0010
0100
1000
0010
0001
0100
0010
0100
,
0011
0110
1100
1001
;

//---------------dance-single - ----------------
#NOTES:
     dance-single:
     :
     Medium:
     6:
     0.341,0.356,0.119,0.076,0.005:
0010
0000
0100
0000
0001
0010
0001
0000
,
1000
0000
0010
0000
0100
0010
0100
0010
,
0100
1000
0100
0100
,
0001
0100
0001
0001
,
0010
1000
0010
0100
,
0010
0010
0010
0110
,
1000
0001
0100
0100
,
0001
0010
1000
1000
,
0010
0100
0001
0100
,
1000
1000
1000
1001
,
0020
0031
0100
0010
,
2000
3100
0010
1000
,
0200
0301
1000
0001
,
0010
0100
0001
0110
,
1000
0100
1000
1000
,
0010
0100
0001
0001
,
0100
0010
0001
0010
,
1001
0110
1001
0110
,
1000
0000
0100
0000
0001
0010
0001
0000
,
0100
0000
0010
1000
0010
0000
0100
0000
,
1000
0000
0010
0000
0100
0010
0100
0000
,
0001
0000
1000
0001
1000
0000
0010
0000
,
0100
0000
1000
0000
0010
0010
0010
0000
,
0100
1000
0010
0100
,
0001
0000
0010
0000
0100
0100
0100
0000
,
0010
0010
0010
0000
1000
0100
0010
0001
,
0010
0200
0310
1001
,
0010
2000
3001
0110
,
0001
0200
0301
0110
,
0001
2000
3001
0100
,
0001
0001
0010
0010
0100
1000
0100
0000
,
1000
1000
0100
0100
0010
0001
0010
0000
,
0100
0100
0010
0010
0001
1000
0001
0000
,
0010
0000
0100
0000
0001
0000
1000
1000
,
0010
0000
0100
0000
0001
0010
0001
0000
,
0100
0000
0000
0000
0010
0000
1000
0001
1000
0000
0000
0000
0010
0000
0010
0000
,
0010
0100
1000
1000
,
0010
0100
0001
0001
,
0100
0010
0001
0010
,
0100
0100
0100
0110
,
1000
0001
0100
0100
,
0001
1000
0100
0100
,
0010
1000
0010
0001
,
1000
1000
1000
1000
;

//---------------dance-single - ----------------
#NOTES:
     dance-single:
     :
     Easy:
     3:
     0.215,0.260,0.033,0.109,0.000: // measure 1
0010
0010
0100
0001
,  // measure 2
1000
1000
0010
0100
,  // measure 3
0001
0000
0001
0000
,  // measure 4
0010
0000
0010
0000
,  // measure 5
0100
0000
0100
0000
,  // measure 6
0001
0000
1000
0000
,  // measure 7
1000
0000
1000
0000
,  // measure 8
0010
0000
0010
0000
,  // measure 9
0100
0000
0100
0000
,  // measure 10
0001
0000
0100
0000
,  // measure 11
0001
0000
0020
0030
,  // measure 12
1000
0000
0200
0300
,  // measure 13
0001
0000
0020
0030
,  // measure 14
0100
0100
0100
0000
,  // measure 15
0010
0000
1000
0000
,  // measure 16
0010
0000
0100
0000
,  // measure 17
0001
0000
0100
0000
,  // measure 18
0010
0010
0010
0000
,  // measure 19
0110
1000
0100
0100
,  // measure 20
0001
0100
0020
0030
,  // measure 21
1000
0001
0100
0100
,  // measure 22
0001
0010
0002
0003
,  // measure 23
0100
0100
1000
1000
,  // measure 24
0010
0100
0020
0030
,  // measure 25
0100
0100
0001
0010
,  // measure 26
0100
1000
0100
0010
,  // measure 27
0110
1000
0100
0002
,  // measure 28
0103
0010
1000
0010
,  // measure 29
0100
1000
0010
0200
,  // measure 30
0301
0100
0010
0010
,  // measure 31
1000
0100
0010
0001
,  // measure 32
0001
0010
0100
1000
,  // measure 33
0010
0100
0001
0001
,  // measure 34
0010
1000
0010
0100
,  // measure 35
0010
0010
0010
0100
,  // measure 36
0001
0001
2002
3003
,  // measure 37
0010
0000
1000
0000
,  // measure 38
0010
0000
0100
0000
,  // measure 39
0001
0000
0100
0000
,  // measure 40
0001
0000
0001
0000
,  // measure 41
0010
0000
0100
0000
,  // measure 42
0010
0000
1000
0000
,  // measure 43
0010
0000
0001
0000
,  // measure 44
0100
0000
0100
0000
;
