#TITLE:PSYCHO;
#SUBTITLE:;
#ARTIST:Red Velvet;
#TITLETRANSLIT:;
#SUBTITLETRANSLIT:;
#ARTISTTRANSLIT:;
#CREDIT:;
#BANNER:PSYCHO banner.png;
#BACKGROUND:PSYCHO bg.png;
#LYRICSPATH:;
#CDTITLE:;
#MUSIC:PSYCHO.mp3;
#OFFSET:-0.340;
#SAMPLESTART:55.140;
#SAMPLELENGTH:15.000;
#SELECTABLE:YES;
#BPMS:0.000=70.000,16.000=140.040,176.000=70.000,184.000=140.040;
#STOPS:;
#BGCHANGES:1.000=PSYCHO.avi=1.000=0=1=0,
99999=-nosongbg-=1.000=0=0=0 // don't automatically add -songbackground-
;

//---------------dance-single - ----------------
#NOTES:
     dance-single:
     :
     Hard:
     8:
     0.561,0.637,0.241,0.149,0.174:
0000
0000
0000
0000
,
0000
0000
0000
0000
,
0010
1100
0001
0110
,
1000
0000
0000
0000
0101
0000
0000
0000
0100
0020
0000
0000
0130
1000
0100
0010
,
0001
0000
1000
0010
0200
0000
0310
0000
,
1000
0100
0011
0000
0010
0100
0001
0100
,
0020
1030
0020
0100
,
0130
0001
0001
0010
0100
0000
1000
0100
,
0110
0000
1001
0000
0010
0100
0001
0100
,
0110
0000
0000
0000
1001
0000
0000
0000
0100
0000
0000
0001
0000
0000
0100
0000
,
0010
0000
0000
1000
0000
0000
0010
0000
0100
0000
0001
0000
1000
0000
0010
0000
,
0200
0000
0000
0000
0000
0000
0000
0000
0310
0001
0000
0000
1000
0010
0000
0000
,
0110
0000
0001
0010
0100
0000
0110
0000
,
0010
0010
1000
0000
0100
0010
0001
0010
,
0100
0000
0000
0000
0010
1000
0000
0000
0110
0000
0000
0000
1000
0000
0100
0000
,
1000
0010
0010
0100
0001
1000
0001
1000
,
0010
0000
0000
0000
0100
0000
0010
0000
0100
0001
0000
0000
0010
1000
0000
0000
,
1001
0000
0000
0000
0100
0000
0100
0000
0010
0000
0000
1000
0000
0000
0010
0000
,
0100
0000
0000
0001
0000
0000
0100
0000
0010
0000
0000
0000
1000
0100
0010
0000
,
0002
0000
0000
0000
0000
0000
0000
0000
0013
0100
0000
0000
0100
0010
0000
0000
,
1000
0100
0010
0001
0010
0000
0100
0010
,
0100
0000
0002
0000
0013
0100
1000
0100
,
0020
0000
0130
0010
,
1000
0100
0001
0100
1000
0010
0200
0000
,
0310
0001
1000
0010
0001
0000
0100
0000
,
0010
0100
1000
0010
0100
1000
0010
0000
,
1000
0000
0000
0010
0000
0000
0100
0000
0001
0000
0000
0100
0000
0000
0010
0000
,
1000
0100
0010
0001
0010
0100
1000
0010
,
0110
0000
0110
0000
0000
0000
0001
0000
0110
0000
1000
0000
0100
0001
0100
0000
,
0000
0010
0100
1000
0010
0001
0100
0010
,
1100
0000
1100
0000
0000
0000
0100
0000
0010
0000
0001
0000
0100
0010
0100
0000
,
0000
0001
0100
0010
1000
0010
0100
1000
,
0010
0100
0000
0000
0010
0000
0100
0000
1000
0000
0001
0000
0100
0000
0010
0000
,
1000
0001
0010
0010
0100
0000
0001
0100
,
0100
0010
1000
0010
0100
0000
0010
1000
,
0100
0001
0001
0100
0010
0000
1000
0100
,
1001
0000
1001
0000
0000
0000
0010
0000
0100
0000
0001
0000
1000
0010
0100
0000
,
0000
0010
0010
0100
0001
0010
1000
0010
,
0101
0000
0101
0000
0000
0000
0010
0000
0100
0000
0001
0000
0010
0100
0001
0000
,
0000
1000
1000
0010
0100
0010
1000
0010
,
0100
0001
0010
0100
1000
0000
0010
0010
,
0100
1000
0100
0010
0001
0000
0010
1000
,
0001
0100
0010
1000
0001
0000
0010
0100
,
0001
0000
1000
0000
0010
0100
0010
0000
1000
0000
0000
0000
0100
0010
0000
0000
,
2000
3200
0320
0030
0002
0023
0230
0300
,
0010
0000
0000
1000
0010
0000
0000
0001
0010
0000
0000
1000
0010
0000
0000
0000
0100
0000
0000
0000
0010
0000
0000
0000
0110
0000
0000
0000
0000
0000
0000
0000
,
1000
0000
0000
0001
0000
0000
0100
0000
0010
0000
0000
1000
0000
0000
0001
0000
,
0100
0000
0000
1000
0000
0000
0100
0000
0010
0000
0000
0001
0000
0000
0010
0000
,
0100
0001
0010
1000
0010
0100
0010
0100
,
1000
0100
0010
0001
0010
0100
1000
0100
0010
0000
1000
0000
0001
0000
0100
0000
,
0110
0000
0110
0000
0001
0000
0010
0000
1000
0000
0010
0100
1000
0100
0010
0000
,
0001
0010
0010
0100
0001
0010
0100
1000
,
1001
0000
1001
0000
0010
0000
0100
0000
1000
0000
0001
0010
0001
1000
0010
0000
,
0100
0100
0110
0000
0001
0010
0100
0010
,
1000
0010
0001
0100
0010
1000
0010
0100
,
0100
0001
1000
0010
0001
0000
0010
0100
,
1001
0010
0100
0001
0100
0000
0010
0100
,
1000
0100
0010
0001
0010
0100
0010
0100
,
0001
0000
1000
0000
0010
0000
0100
0000
1000
0000
0100
0010
0001
0000
0000
0000
,
0010
0000
0100
0000
1000
0000
0001
0000
0100
0000
0001
0010
0100
0000
0000
0000
,
0010
0000
1000
0000
0100
0000
1000
0000
0010
0000
1000
0100
0010
0000
0000
0000
,
0001
0000
1000
0000
0010
0000
0100
0000
0001
0000
1000
0010
0100
0000
0010
0000
,
0020
0030
0101
0000
,
1000
0100
0010
0001
,
2000
3000
0110
0000
,
0001
0000
0000
0000
0010
0000
0000
0000
0100
0010
0000
0000
1000
0010
0000
0000
,
0101
0000
0010
0000
1000
0010
1000
0000
0010
0000
0100
0000
0010
0000
0100
0000
,
0001
0000
1000
0000
0010
0001
0010
0000
0100
0000
0010
0000
1000
0000
0010
0000
,
1100
0000
0100
0000
0010
0100
0010
0000
1000
0000
0001
0000
0100
0000
0010
0000
,
0100
0000
0001
0000
0010
1000
0010
0000
0100
0000
0001
0000
0100
0000
1000
0000
,
0200
0000
0310
0000
0001
0010
0100
0000
,
0010
1000
1000
0000
0100
0000
1000
0100
,
0020
0000
0130
0000
0001
0100
0001
0010
,
0100
0000
0100
0010
1000
0001
0010
0000
,
1001
2002
0000
0000
0000
0000
3003
0000
;

//---------------dance-single - ----------------
#NOTES:
     dance-single:
     :
     Medium:
     6:
     0.395,0.372,0.099,0.142,0.004:
0000
0000
0000
0000
,
0000
0000
0000
0000
,
0010
0101
0010
0110
,
1000
0000
0000
0000
0101
0000
0000
0000
0010
0200
0000
0000
0300
0000
0000
0000
,
1000
0000
0100
0001
0100
0000
0010
0000
,
0100
0100
0110
0000
0010
1000
0010
0000
,
0100
0001
2000
3010
,
0100
0000
0100
0000
0001
0000
0010
0100
,
1000
0000
0100
0000
0010
0000
1000
0100
,
0010
0001
0100
0010
,
0100
0000
0001
0000
0010
0100
1000
0100
,
0020
0000
0100
0100
,
0031
0100
0010
1000
,
0010
0100
1000
0000
0010
0001
0010
0000
,
0100
0010
0002
0013
,
0100
0000
0010
0000
1000
0010
1000
0000
,
0010
0010
0100
0001
,
2000
3000
0010
0010
,
0100
0000
0010
1000
0010
0000
0100
0000
,
0002
0000
0013
0100
,
0010
0001
1000
0000
0010
0000
0100
0010
,
0001
0000
0100
0000
0010
0000
1000
0001
,
2000
0000
3100
0000
,
0010
0000
0100
0000
0001
0010
0100
0000
,
0010
0000
1000
0001
1000
0000
0010
0000
,
0001
0100
0001
0000
0010
1000
0010
0000
,
0100
0000
1000
0000
0010
0000
0100
0001
,
0001
0000
0010
0000
0100
0010
0100
0010
,
0110
0000
0001
0100
0100
0000
0010
1000
,
0000
1000
0010
0000
0100
1000
0100
0000
,
0010
2000
0000
3100
0100
0000
0010
0200
,
0000
0301
0001
0000
0010
0100
0010
0000
,
1000
0000
0100
0001
0100
0000
0010
0000
,
0100
0000
0001
0010
0001
0000
0010
0000
,
0100
0000
0010
0100
0020
0000
0130
0000
,
1000
0000
0100
0010
0001
0000
0010
0010
,
0110
0000
1000
0010
0010
0000
0100
0001
,
0000
0001
0100
0000
0010
0000
1000
0010
,
0100
0002
0000
0003
0010
0000
0100
0020
,
0000
0030
0100
0000
0010
0000
0001
0010
,
0001
0000
0010
0100
0010
0000
1000
0100
,
1000
0000
0010
0100
0020
0000
0030
0100
,
1000
0000
0100
0010
0001
0000
0100
0000
,
0010
0100
0010
0000
0100
0000
0110
0000
,
0010
1000
0010
0000
0100
0001
0100
0000
,
0010
0100
1000
0200
0000
0300
0010
0000
,
0110
0001
1100
0010
,
1100
0010
0110
0011
,
0010
0000
0100
0000
0010
0000
1000
0001
,
1000
0000
0010
0000
0001
1000
0001
1000
,
1001
0000
0010
0100
0100
0000
0001
0100
,
0000
0100
0010
0000
0100
0000
0010
0100
,
1000
0000
0100
0010
0001
0000
0100
0010
,
0000
0010
0100
0000
0010
0000
0100
0000
,
0001
0000
1000
0010
1000
0000
0100
0000
,
1000
0000
0010
0100
0010
0000
0001
0000
,
0100
0000
0010
0001
0010
0000
0100
0000
,
0010
0000
0100
0010
0100
0000
1000
0000
,
0100
0000
1000
0100
0100
0000
0010
0100
,
0010
0000
0001
0010
0010
0000
0100
0010
,
0001
0000
0100
0010
0010
0000
0100
1000
,
0100
0000
0010
1000
1000
0000
0100
0002
,
0000
0000
0013
0100
,
0010
0000
1000
0000
0010
0000
1000
0200
,
0000
0000
0301
0000
,
0010
0100
1000
0001
,
0100
0000
1000
0100
1000
0000
0010
0100
,
0010
0000
1000
0001
1000
0000
0010
0001
,
0010
0000
0100
0010
0100
0000
0001
0010
,
0100
0000
0010
0100
1000
0000
0010
0100
,
0020
0130
0001
0100
,
1000
0000
0010
0100
1000
0000
0100
0010
,
0002
0000
0013
0000
0100
0000
0010
0100
,
0010
1000
0100
0010
,
1000
2002
0000
0000
0000
0000
0000
3003
;

//---------------dance-single - ----------------
#NOTES:
     dance-single:
     :
     Easy:
     4:
     0.319,0.345,0.128,0.192,0.000: // measure 1
0000
0000
0000
0000
,  // measure 2
0000
0000
0000
0000
,  // measure 3
0010
0110
0100
0110
,  // measure 4
1000
0000
1001
0000
0010
0000
0010
0010
,  // measure 5
0010
0100
0001
1000
,  // measure 6
0100
0001
1000
0010
,  // measure 7
1000
1000
0020
0030
,  // measure 8
0100
0100
0001
0010
,  // measure 9
0100
0100
0001
1000
,  // measure 10
0010
0010
0001
0100
,  // measure 11
0010
1000
0010
0100
,  // measure 12
0002
0000
0010
0010
,  // measure 13
0103
0010
1000
0001
,  // measure 14
0010
0100
0001
1000
,  // measure 15
0100
1000
0200
0300
,  // measure 16
0100
0100
0010
1000
,  // measure 17
0001
0001
0100
0010
,  // measure 18
0200
0300
0001
0010
,  // measure 19
0100
1000
0020
0030
,  // measure 20
0200
0000
0310
0010
,  // measure 21
1000
0100
0010
0001
,  // measure 22
0010
0100
1000
0100
,  // measure 23
0020
0000
0130
0000
,  // measure 24
0001
0010
0001
0010
,  // measure 25
0100
0010
0010
1000
,  // measure 26
0001
0010
0100
1000
,  // measure 27
0010
0010
0100
0100
,  // measure 28
0010
0000
1000
1000
,  // measure 29
1001
0100
0010
1001
,  // measure 30
0010
0100
0001
0001
,  // measure 31
0110
1000
0001
0110
,  // measure 32
1000
0001
0010
0010
,  // measure 33
0001
0100
0010
1000
,  // measure 34
0010
0100
0001
1000
,  // measure 35
0010
0010
0200
0300
,  // measure 36
0001
0001
0200
0310
,  // measure 37
1001
0010
0001
1001
,  // measure 38
0010
0100
1000
0010
,  // measure 39
0110
0001
1000
0110
,  // measure 40
0001
1000
0010
0010
,  // measure 41
0100
0001
0100
0010
,  // measure 42
1000
0010
0200
0300
,  // measure 43
0010
0010
0200
0300
,  // measure 44
0001
0001
0020
0130
,  // measure 45
0010
0100
0001
1000
,  // measure 46
0100
0010
0001
1000
,  // measure 47
0100
0100
0010
0010
,  // measure 48
0001
0001
1000
1000
,  // measure 49
0010
0100
0001
1000
,  // measure 50
0020
0130
0001
0001
,  // measure 51
0110
1000
0001
0110
,  // measure 52
1000
0001
0001
0010
,  // measure 53
1001
0010
0010
1001
,  // measure 54
0010
0010
0100
0010
,  // measure 55
1000
0001
0001
0010
,  // measure 56
0100
0010
0010
1000
,  // measure 57
0100
0010
0002
0013
,  // measure 58
0100
0100
0020
0030
,  // measure 59
0100
0100
2000
3000
,  // measure 60
0010
0010
0002
0003
,  // measure 61
0100
0100
0020
0030
,  // measure 62
0001
0001
0200
0310
,  // measure 63
0020
0000
0100
0030
,  // measure 64
0001
0010
0100
1000
,  // measure 65
0200
0000
0010
0300
,  // measure 66
0001
1000
0001
1000
,  // measure 67
0010
0010
0002
0013
,  // measure 68
0100
0100
0020
1030
,  // measure 69
0100
0100
2000
3100
,  // measure 70
0010
0010
0200
0310
,  // measure 71
1001
0001
0001
0010
,  // measure 72
0100
0010
1000
0100
,  // measure 73
0110
1000
1000
0100
,  // measure 74
0010
0001
0010
0100
,  // measure 75
0220
0000
0000
0000
0000
0000
0000
0330
;
