#TITLE:One More;
#SUBTITLE:;
#ARTIST:FIESTAR;
#TITLETRANSLIT:;
#SUBTITLETRANSLIT:;
#ARTISTTRANSLIT:;
#CREDIT:;
#BANNER:One More banner.png;
#BACKGROUND:One More bg.png;
#LYRICSPATH:;
#CDTITLE:;
#MUSIC:One More.mp3;
#OFFSET:-9.040;
#SAMPLESTART:67.960;
#SAMPLELENGTH:12.000;
#SELECTABLE:YES;
#BPMS:0.000=114.000;
#STOPS:;
#BGCHANGES:;

//---------------dance-single - ----------------
#NOTES:
     dance-single:
     :
     Hard:
     8:
     0.477,0.459,0.238,0.093,0.297:
1000
0101
0010
1001
,
0001
0010
0000
0100
0000
1000
0000
0100
0010
0000
0100
0000
0110
0000
0000
0000
,
0001
1010
0100
0110
,
0001
0000
0010
0000
0100
0000
1000
0000
0100
0000
0001
0000
0100
0010
0000
0000
,
0010
0000
0001
0000
0100
0000
0010
1000
0000
0000
1000
0000
0010
0000
0100
0010
,
0100
0001
0000
0010
0000
0100
0000
1000
0100
0000
0001
0000
0100
0000
0000
0000
,
0010
0000
0001
0010
0100
0000
0010
1000
0000
0000
1000
0000
0010
0000
0100
0001
,
0100
1000
0000
0100
0000
0010
0000
0001
0010
0000
0100
0000
0010
0000
0000
0000
,
0010
0100
0100
0001
0100
0010
1000
0020
,
0000
1030
1000
0100
0001
0010
0100
0000
,
0001
0000
0100
0010
0100
1000
0001
0010
0100
0000
0010
0000
1000
0000
0001
0010
,
1000
0100
0000
0010
0000
0100
0000
0010
0100
0000
0001
0000
0100
0000
0100
0000
,
0110
0000
1001
0000
0001
0010
0010
0100
,
0010
1000
0010
0100
0001
0100
0010
1000
,
0100
0001
0200
0000
0310
0000
1000
1000
,
0100
0010
0100
1000
0010
0001
0010
0100
,
2002
0000
3003
0010
0100
0001
0100
0010
,
0220
0000
0000
0000
0330
0000
1000
0000
0100
0010
0001
0010
0100
0010
0100
0001
,
0010
1000
0020
0000
0130
1000
0100
0000
,
0011
0010
0110
0100
1100
0010
0100
0001
,
1001
0010
0001
0100
0010
1000
0010
0100
,
0001
0010
1000
0020
0000
0030
0110
0000
,
1000
0100
0100
0001
0010
1000
0010
0100
,
0001
0010
0100
2000
0000
3000
0010
0100
,
0110
0000
0001
0001
0010
0100
1000
0100
,
0110
0000
1000
0100
1000
0001
0010
0001
,
1000
0000
0100
0010
0100
0000
0010
0001
0010
0000
1100
0000
1100
0000
0000
0000
,
0010
0100
0001
1000
0020
0000
0031
0000
,
1000
0000
0000
0100
0000
0000
0010
0000
0001
0000
1000
0000
0010
0000
0100
0000
,
0100
0001
0000
1000
0000
0010
0000
0100
0001
0000
1000
0000
1001
0000
0000
0000
,
0001
0000
0000
0010
0000
0000
0100
0000
1000
0000
0100
0000
0010
0000
0001
0000
,
1000
0010
0000
0100
0000
0001
0000
1000
0010
0000
0001
0000
0011
0000
0000
0000
,
0100
0000
0000
0100
0000
0000
0100
0000
0010
0000
0010
0000
0100
0000
0100
0000
,
1000
0001
0000
0001
0000
0001
0000
0001
0010
0000
0100
0000
0110
0000
0000
0000
,
1001
0000
0000
0110
0000
0000
0001
0000
0010
0000
0100
0000
1000
0000
0100
0000
,
0010
1000
0000
0001
0000
1000
0000
0001
0100
0000
0010
0000
0110
0000
0000
0000
,
1000
0100
0010
0001
,
0100
0000
0010
0000
0001
0000
1000
0010
0000
0000
0100
0000
0010
0000
0001
0010
,
0100
1000
0000
0100
0000
0010
0000
0100
0010
0000
0001
0000
0010
0000
0000
0000
,
0100
0000
0001
0010
0001
0000
0010
0100
0000
0000
0100
0000
0010
0000
1000
0010
,
0100
0001
0000
0010
0000
0100
0000
1000
0010
0000
0100
0000
1000
0000
0000
0000
,
0110
0100
1000
0010
0001
0010
0100
0020
,
0000
0130
0100
0010
0001
0010
1000
0000
,
0100
0000
0001
0010
0100
1000
0100
0010
0001
0000
0010
0000
0100
0000
0010
0100
,
0010
0000
0000
0000
1001
0000
0000
0000
0010
0000
0100
0000
0001
0010
0000
0000
,
1100
0000
0011
0000
0100
0010
1000
0100
,
0001
0100
0010
0001
0010
0010
0100
0010
,
1000
0000
0000
0000
;

//---------------dance-single - ----------------
#NOTES:
     dance-single:
     :
     Medium:
     6:
     0.298,0.279,0.059,0.017,0.000:
1000
0110
1000
0110
,
0001
0010
0010
0010
0010
0100
0010
0000
,
0100
0101
0010
1010
,
0010
0100
0001
1000
,
0010
0010
0100
0100
,
0001
0001
0001
0001
0001
0010
0100
0000
,
0010
1000
0010
0100
,
1000
1000
1000
1000
1000
0100
0010
0000
,
0100
0001
0100
0010
,
0100
0000
0100
0000
0010
0100
0010
0000
,
1000
0100
0001
0100
,
0010
0010
0010
0010
0010
0100
0010
0000
,
1000
0100
0010
0001
,
0100
0000
0010
0000
0001
0010
0100
0000
,
0010
0010
0100
0100
,
0010
0000
1000
0000
0010
0000
0100
0010
,
0001
0000
0010
0000
0100
0000
0010
0100
,
1000
0100
0010
0100
,
0001
0001
0010
0000
0010
0000
0100
0000
,
0010
0100
0010
0100
0010
0000
0010
0000
,
1000
0100
0010
0000
0100
0010
0001
0000
,
0010
0100
0010
0200
0000
0000
0310
0000
,
0001
0010
0100
0000
0010
0100
1000
0000
,
0100
0010
0100
0020
0000
0000
0130
0000
,
0100
1000
0010
0100
,
0001
0010
0100
0010
,
1000
0000
0100
0000
0010
0001
0001
0000
,
0100
0010
0100
0010
0100
0000
0001
0000
,
1000
0010
0100
0001
,
0010
0100
0100
0100
0100
0010
0001
0000
,
0010
0100
1000
0010
,
0100
1000
1000
1000
1000
0100
0010
0000
,
0100
0001
1000
0010
,
0100
0001
0001
0001
0001
0010
0100
0000
,
0100
0010
1000
0001
,
0100
0001
0100
0001
0100
0001
0010
0000
,
0100
0010
1000
0001
,
0100
0110
0010
0010
,
1000
0100
0010
0001
0010
0100
1000
0000
,
0010
0100
0010
1000
,
0001
0010
0100
1000
0100
0010
0001
0000
,
0010
0100
0010
0001
,
0010
0000
0100
0000
0010
1000
0010
0000
,
0100
0010
1000
0010
,
0100
0110
0001
0001
,
0010
0010
0100
0010
,
1000
0000
0100
0000
0010
0001
0010
0000
,
0110
0000
0000
0000
;

//---------------dance-single - ----------------
#NOTES:
     dance-single:
     :
     Easy:
     3:
     0.236,0.219,0.059,0.051,0.000: // measure 1
0100
0110
0010
0011
,  // measure 2
0010
0010
0100
0010
,  // measure 3
1000
1100
0010
0011
,  // measure 4
0100
0010
1000
0001
,  // measure 5
0010
1000
0001
0010
,  // measure 6
0100
0100
0100
0100
,  // measure 7
0010
1000
0100
0001
,  // measure 8
0010
0010
0010
0010
,  // measure 9
0100
0010
0001
0001
,  // measure 10
0010
0100
0010
0010
,  // measure 11
0100
1000
0100
0010
,  // measure 12
1000
1000
1000
1000
,  // measure 13
0010
0100
0010
0001
,  // measure 14
0010
0100
0010
1000
,  // measure 15
0010
0200
0300
0010
,  // measure 16
0010
0100
0001
0100
,  // measure 17
0020
0030
1000
0100
,  // measure 18
0002
0003
0100
0100
,  // measure 19
0010
0200
0000
0310
,  // measure 20
1000
1000
1000
0010
,  // measure 21
0100
0001
0100
0010
,  // measure 22
0100
0020
0030
0110
,  // measure 23
1000
0100
0010
0001
,  // measure 24
0100
0020
0030
0100
,  // measure 25
0100
0010
0001
0010
,  // measure 26
0100
0010
0001
1000
,  // measure 27
0100
0100
0100
0010
,  // measure 28
0100
0001
0100
0010
,  // measure 29
1000
0001
0100
0010
,  // measure 30
0001
0001
0001
0001
,  // measure 31
0010
0100
0010
0100
,  // measure 32
1000
1000
1000
1000
,  // measure 33
0010
0100
0010
0001
,  // measure 34
0010
0010
0010
0010
,  // measure 35
1000
0100
0010
0001
,  // measure 36
0100
0100
0100
0100
,  // measure 37
0001
0010
0100
1000
,  // measure 38
0010
1000
0100
0001
,  // measure 39
0100
0100
0100
0100
,  // measure 40
0010
0001
0100
0010
,  // measure 41
1000
1000
1000
1000
,  // measure 42
0010
0100
0001
0001
,  // measure 43
0010
1000
0010
0010
,  // measure 44
0100
0001
0010
0001
,  // measure 45
0100
0110
0000
0010
,  // measure 46
0010
0100
0001
1000
,  // measure 47
0010
0100
0001
0100
,  // measure 48
1001
0000
0000
0000
;
