#TITLE:NO;
#SUBTITLE:;
#ARTIST:CLC;
#TITLETRANSLIT:;
#SUBTITLETRANSLIT:;
#ARTISTTRANSLIT:;
#CREDIT:;
#BANNER:NO banner.png;
#BACKGROUND:NO bg.png;
#LYRICSPATH:;
#CDTITLE:;
#MUSIC:NO.mp3;
#OFFSET:-9.580;
#SAMPLESTART:64.320;
#SAMPLELENGTH:15.000;
#SELECTABLE:YES;
#BPMS:0.000=120.000;
#STOPS:;
#BGCHANGES:;

//---------------dance-single - ----------------
#NOTES:
     dance-single:
     :
     Hard:
     7:
     0.502,0.517,0.308,0.072,0.128:
0100
0000
0001
0010
0001
0000
1010
0000
,
0100
0000
0010
1000
0010
0000
0101
0000
,
0010
0000
0100
0010
0100
0000
0110
0000
,
1000
0000
1000
0010
1000
0000
0100
0100
,
0010
0000
1000
0001
1000
0000
0010
0000
,
0100
0001
0100
1000
0100
0000
0010
1000
,
0100
0010
0001
1000
0100
0010
0001
0000
,
0110
0120
0030
1000
0100
1000
0001
0010
,
0001
0000
0100
0010
1000
0000
0100
0000
,
0010
0001
0010
0100
1000
0000
0100
0001
,
0010
0100
1000
0001
0010
0100
1000
0000
,
0010
0110
0110
0001
0010
1000
0100
0010
,
0200
0000
0301
0010
0001
1000
0010
0100
,
0020
0000
1030
0100
0001
0100
1000
0010
,
0100
0000
0000
0011
0000
0000
0100
0000
0000
0010
0000
0000
1100
0000
0000
0000
,
0010
0100
0110
0001
0010
1000
0001
0010
,
0200
0000
0310
1000
0010
0100
0010
0100
,
0002
0000
0013
1000
0100
0001
0100
0010
,
0001
0000
0000
1010
0000
0000
0100
0000
0000
0001
0000
0000
0110
0000
0000
0000
,
0001
0000
0010
0000
1100
0000
0010
0000
1000
0001
1000
0000
0010
0100
0010
0000
,
0001
1000
0001
0000
0010
0000
0100
0000
0001
0010
0001
0000
0010
0100
0010
0000
,
0100
1000
0100
0000
0010
0000
0100
0000
1000
0100
1000
0000
0100
0010
0100
0000
,
0010
0001
0010
0000
0100
0000
1000
0000
0001
0100
0001
0000
0010
0100
0010
0000
,
1000
0100
1000
0000
0010
0000
0010
0000
0100
0010
0100
0000
0001
1000
0001
0000
,
0100
0010
0100
0000
0001
0000
1000
0000
0010
0001
0010
0000
0100
1000
0100
0000
,
0010
0100
0010
0000
1000
0000
0100
0000
0001
0010
1000
0000
0010
0100
1000
0000
,
0100
1000
0100
0000
0010
0000
0100
0000
0010
0000
0010
0000
0001
0000
0010
0000
,
0200
0000
0300
0011
0000
1100
0000
0010
,
1001
0010
0100
0001
1000
0010
0100
0000
,
0001
1000
0100
0010
1000
0001
0100
0000
,
0001
0010
0001
0100
1000
0010
0100
0000
,
0200
0000
0310
0001
0010
1000
0010
0001
,
0110
1000
0010
1000
0100
0010
0100
0000
,
0010
1000
0010
0001
0100
0001
0010
0000
,
1000
0010
0100
0001
0100
0010
0000
0001
,
0001
0010
0100
1000
0100
0010
0001
0000
,
0110
0000
0001
0010
0001
0000
1100
0000
,
0010
0000
1000
0001
0010
0000
0101
0000
,
0010
0000
0100
1000
0010
0000
1001
0000
,
0100
0000
0001
0010
1000
0000
0110
0000
,
1100
0000
0010
0001
0100
0000
0011
0000
,
0110
0000
0001
0100
1000
0000
0011
0000
,
1100
0000
0010
0100
0001
0000
0110
0000
,
1001
0000
0010
1000
0100
0000
0110
0000
;

//---------------dance-single - ----------------
#NOTES:
     dance-single:
     :
     Medium:
     5:
     0.332,0.314,0.195,0.154,0.000:
0010
0000
0100
0010
0100
0000
0010
0000
,
0001
0000
1000
0001
1000
0000
1000
0000
,
0100
0000
1000
0100
1000
0000
0100
0000
,
0010
0000
0001
0010
0001
0000
0010
0000
,
0100
0001
0100
0100
,
0010
1000
0100
0010
,
0100
0001
0100
0010
,
0100
0200
0000
0000
0310
0000
0010
0000
,
1000
0001
0010
0010
,
0100
0010
0001
1000
,
0010
1000
0100
0001
,
0100
0200
0000
0000
0301
0000
0010
0000
,
0200
0310
1000
0010
,
0002
0013
0100
0010
,
1000
0000
0100
0001
0000
0001
0100
0000
,
0010
0100
0010
1000
,
0010
0100
1000
0001
,
0020
0130
1000
1000
,
0010
0000
0100
0001
0000
0001
0100
0000
,
0010
1000
0010
0010
,
0110
0000
0001
0000
1000
0100
1000
0000
,
0010
0000
0100
0000
0001
0010
0001
0000
,
0010
0000
0100
0000
0001
0010
0100
0000
,
0010
0000
0100
0000
0010
1000
0010
0000
,
0100
0000
0100
0000
0010
0100
0010
0000
,
1000
0000
0100
0000
0010
0100
0010
0000
,
0001
0000
0100
0000
0010
0100
0010
0000
,
0100
0000
0000
0001
0000
1000
0000
0010
,
0110
0000
0001
1000
0000
0010
0000
1000
,
0010
0000
0100
0001
0000
1000
0000
0011
,
0000
0100
0000
0101
0000
1000
0000
0120
,
0000
0030
0100
0001
0000
1000
0000
0010
,
0110
0000
1000
0001
0000
0100
0000
1000
,
0100
0000
0010
1000
0000
0010
0000
0110
,
0000
0001
0000
0101
0000
2010
0000
3000
,
0100
0000
0001
1000
0000
0000
1001
0000
,
0110
0000
1000
0020
0000
0030
0110
0000
,
0010
0000
1000
0002
0000
0003
1001
0000
,
0100
0000
1000
0200
0000
0300
0101
0000
,
0010
0000
0100
0002
0000
0003
0011
0000
,
0100
0000
0010
2000
0000
3000
1010
0000
,
0100
0000
0010
0200
0000
0300
0110
0000
,
0010
0000
1000
0002
0000
0003
0011
0000
,
1000
0000
0100
0020
0000
0030
0110
0000
;

//---------------dance-single - ----------------
#NOTES:
     dance-single:
     :
     Easy:
     3:
     0.264,0.247,0.082,0.144,0.000: // measure 1
0010
0010
0100
0100
,  // measure 2
0001
0001
1000
1000
,  // measure 3
0010
0100
0001
0100
,  // measure 4
0010
1000
0010
0100
,  // measure 5
0010
1000
0010
0010
,  // measure 6
0100
0001
0100
1000
,  // measure 7
0010
0100
0001
0200
,  // measure 8
0300
0010
0100
0100
,  // measure 9
0001
1000
0010
0010
,  // measure 10
0001
0010
0100
0010
,  // measure 11
1000
0010
0001
0200
,  // measure 12
0300
0001
0010
0001
,  // measure 13
0001
0010
0100
1000
,  // measure 14
1000
0010
0100
0010
,  // measure 15
1000
0010
0100
0002
,  // measure 16
0003
0010
0100
0100
,  // measure 17
0010
1000
0100
0010
,  // measure 18
0010
0100
0001
0100
,  // measure 19
0010
1000
0100
0020
,  // measure 20
0030
0100
0010
0010
,  // measure 21
1001
0000
0001
0001
,  // measure 22
1010
0000
0100
0100
,  // measure 23
0110
0000
0010
0010
,  // measure 24
0011
0000
0010
0010
,  // measure 25
0100
1000
0100
0010
,  // measure 26
0100
0001
0100
0010
,  // measure 27
1000
0010
0100
0100
,  // measure 28
0110
0000
0010
0010
,  // measure 29
0110
0001
1000
0010
,  // measure 30
0100
1000
0010
0100
,  // measure 31
0010
0001
0100
0010
,  // measure 32
0200
0300
0001
0001
,  // measure 33
1010
0100
1000
0010
,  // measure 34
0100
0001
0100
0010
,  // measure 35
1000
0010
0100
0020
,  // measure 36
0031
0001
0001
1001
,  // measure 37
0010
0200
0300
0001
,  // measure 38
0010
2000
3000
0010
,  // measure 39
0100
0002
0003
0100
,  // measure 40
1000
0020
0030
0100
,  // measure 41
0010
2000
3000
0100
,  // measure 42
0010
0200
0300
0010
,  // measure 43
0100
0002
0003
0100
,  // measure 44
0010
0200
0300
0010
;
