#TITLE:NEVER EVER (1 minute, 1 second);
#SUBTITLE:;
#ARTIST:JI YEON;
#TITLETRANSLIT:;
#SUBTITLETRANSLIT:;
#ARTISTTRANSLIT:;
#CREDIT:;
#BANNER:Never Ever (1 Minute, 1 Second) banner.png;
#BACKGROUND:Never Ever (1 Minute, 1 Second) bg.png;
#LYRICSPATH:;
#CDTITLE:;
#MUSIC:Never Ever (1 Minute, 1 Second).mp3;
#OFFSET:-14.640;
#SAMPLESTART:62.000;
#SAMPLELENGTH:15.000;
#SELECTABLE:YES;
#BPMS:0.000=81.040;
#STOPS:;
#BGCHANGES:;

//---------------dance-single - ----------------
#NOTES:
     dance-single:
     :
     Hard:
     7:
     0.315,0.357,0.200,0.057,0.086:
1010
0000
0101
0000
0001
0010
0100
1000
,
0110
0000
0011
0000
0010
0100
0010
0000
,
1100
0000
0110
0000
1000
0100
0010
0100
,
0001
0010
0000
0100
1000
0000
0100
0010
0000
0001
1000
0000
,
0010
1000
0010
0000
0100
0001
0100
0000
,
0010
0100
1000
0000
0010
0100
0001
0000
,
0010
0001
0010
0100
0010
0100
1000
0100
,
0000
0100
1000
0100
0010
0100
0010
0010
,
0001
0010
0100
0000
0010
0100
1000
0000
,
0100
1000
0100
0000
0001
0010
0001
0000
,
0100
0100
0010
0100
0001
1000
0010
0100
,
0000
0001
0010
1000
0010
0001
0100
0010
,
2000
0000
3100
0000
0010
0010
0100
0010
,
0001
0000
0010
0000
1000
0000
0010
0100
0000
0100
0000
0000
0010
0000
0000
0000
,
1000
0100
0020
0000
0130
0001
0200
0000
,
0310
0001
0010
0000
0100
0010
0100
0000
,
0001
0000
0001
0000
0000
0000
1000
0000
1000
0000
0000
0000
0001
0000
0000
0010
0000
0000
0100
0000
0000
1000
0000
0000
,
0010
0000
0010
0000
0000
0000
0100
0000
0100
0000
0000
0000
0010
0000
0000
0100
0000
0000
1000
0000
0000
0100
0000
0000
,
0020
0000
1030
1000
0001
0100
0010
1000
,
0020
0000
0000
1030
0100
1000
0100
0001
,
0101
0000
0101
0000
0000
0000
1010
0000
1010
0000
0000
0000
0100
0000
0000
0010
0000
0000
0100
0000
0000
0001
0000
0000
,
1001
0000
1001
0000
0000
0000
0110
0000
0110
0000
0000
0000
0001
0000
0000
0010
0000
0000
1000
0000
0000
0100
0000
0000
,
1000
0010
0100
0001
0100
0010
0100
0100
,
1000
0000
0010
0000
0100
0000
0010
0000
0001
0000
0020
0000
0000
0030
0000
0000
,
1100
0000
0110
0000
0100
1000
0100
0010
,
0011
0000
0110
0000
0001
0010
0100
1000
,
0110
0000
1001
0000
0010
0100
0001
0010
,
0001
1000
0000
1000
0001
0000
0010
0100
0000
0100
0010
0000
,
1000
0100
1000
0000
0100
0010
0001
0001
,
0010
0100
0010
0000
1000
0010
0100
0001
,
0110
0000
0000
0000
;

//---------------dance-single - ----------------
#NOTES:
     dance-single:
     :
     Medium:
     6:
     0.227,0.214,0.095,0.019,0.000:
0010
0000
0100
0000
0001
0010
0100
0010
,
1000
0000
0010
0000
0100
1000
0100
0000
,
0010
0000
0001
0000
1000
0100
0010
0100
,
0010
1000
0010
0001
,
0100
0100
0100
0000
0001
0001
0001
0000
,
0010
0010
0010
0000
1000
1000
1000
0000
,
0010
0000
0100
0000
0001
0010
0000
0000
,
0000
0100
0100
0000
0010
0000
1000
0000
,
0010
0100
0010
0000
0001
1000
0001
0000
,
1000
0100
1000
0000
0010
0100
0010
0000
,
1000
0000
0100
0000
0010
0000
0100
0100
,
0000
0010
0010
0000
0100
0000
0001
0010
,
0100
0000
0010
0000
1000
0000
0010
0010
,
0010
0000
0100
0000
0001
0002
0000
0003
,
1000
0100
1000
0000
0001
0010
0001
0000
,
0100
0000
1100
0000
0010
0100
0100
0000
,
0110
0000
0110
0000
0001
0000
1000
0010
,
0011
0011
0100
1000
,
0100
0000
0010
0010
0100
1000
0100
0010
,
0100
0000
1000
0000
0001
0000
0100
1000
,
1001
0000
1001
0000
0010
0000
0100
0001
,
0101
0000
0101
0000
0010
0000
0100
0100
,
0010
0000
1000
0000
0010
0000
0100
0100
,
0001
0000
0010
0000
0001
0002
0000
0000
,
0013
0000
1000
0000
0010
0100
0010
1000
,
0010
0000
0100
0000
0001
1000
0001
0000
,
1000
0000
0010
0000
0100
0001
0100
0010
,
0100
0010
0001
0010
,
1000
1000
1000
0000
0010
0000
0100
0000
,
0001
0001
0001
0000
0100
0000
0010
0000
,
1001
0000
0000
0000
;

//---------------dance-single - ----------------
#NOTES:
     dance-single:
     :
     Easy:
     3:
     0.176,0.186,0.076,0.038,0.000: // measure 1
0100
0010
1000
1000
,  // measure 2
0001
0100
0001
0001
,  // measure 3
0010
1000
0010
0010
,  // measure 4
0100
0001
1000
0001
,  // measure 5
0100
0100
0001
0001
,  // measure 6
1000
1000
0010
0010
,  // measure 7
1000
0100
0010
0002
,  // measure 8
0003
0100
0010
1000
,  // measure 9
0001
0001
0100
0100
,  // measure 10
0010
0010
1000
1000
,  // measure 11
0001
1000
0010
2000
,  // measure 12
3000
0010
0100
0001
,  // measure 13
0010
0100
0010
1000
,  // measure 14
0001
0001
0010
0100
,  // measure 15
0001
0001
1000
1000
,  // measure 16
0010
0100
0010
1000
,  // measure 17
0110
0110
1000
0100
,  // measure 18
1001
1001
0010
0100
,  // measure 19
0001
0100
0010
1000
,  // measure 20
0020
0030
0100
0100
,  // measure 21
1010
1010
0100
0001
,  // measure 22
0101
0101
0010
1000
,  // measure 23
0010
0010
0100
0100
,  // measure 24
0001
1000
0020
0030
,  // measure 25
0100
0100
1000
0010
,  // measure 26
0001
0001
0100
0010
,  // measure 27
1000
1000
0010
0100
,  // measure 28
0001
0010
0100
1000
,  // measure 29
0010
1000
0010
0010
,  // measure 30
0100
0001
1000
1000
,  // measure 31
0010
0000
0000
0000
;
