#TITLE:NEON;
#SUBTITLE:;
#ARTIST:YUKIKA;
#TITLETRANSLIT:;
#SUBTITLETRANSLIT:;
#ARTISTTRANSLIT:;
#CREDIT:;
#BANNER:NEON banner.png;
#BACKGROUND:NEON bg.png;
#LYRICSPATH:;
#CDTITLE:;
#MUSIC:NEON.mp3;
#OFFSET:-8.560;
#SAMPLESTART:50.260;
#SAMPLELENGTH:15.000;
#SELECTABLE:YES;
#BPMS:0.000=115.060;
#STOPS:;
#BGCHANGES:;

//---------------dance-single - ----------------
#NOTES:
     dance-single:
     :
     Hard:
     7:
     0.458,0.437,0.123,0.068,0.174:
1000
0010
0100
0001
,
0010
0001
0010
0100
,
0010
1100
0100
0110
,
0020
0000
0000
0000
0000
0000
0000
0030
,
0100
0000
0001
0010
0100
1000
0100
0010
,
0100
0000
0001
1000
0000
0000
0100
0000
0100
0000
0000
0000
1001
0000
0000
0000
,
0010
0000
1000
0100
0010
0001
0010
0100
,
0010
0000
1000
0001
0000
0000
0010
0000
0010
0000
0100
0000
0100
0000
0000
0000
,
0010
0100
1000
0100
0010
0100
0001
0010
,
0100
0000
0010
0100
0000
0000
0100
0000
1000
0000
0010
0000
1000
0000
0010
0000
,
0000
0001
0000
0100
0000
0010
0100
0010
,
0000
1001
0000
0010
0100
0001
0010
1000
,
0020
0000
0130
1000
0020
0000
0130
0000
,
0001
0010
1000
0010
0100
1000
0100
0010
,
2000
0000
3100
0010
0002
0000
0013
0100
,
0010
1000
0010
0100
0110
0000
0010
0100
,
1000
0100
0001
0100
1000
0000
0010
0000
,
0100
0010
0001
0010
0100
0000
0010
1000
,
0010
0000
0100
0000
1000
0000
0010
0100
,
1000
0001
0000
0000
0100
0000
0010
1000
0010
0000
0000
0000
0010
0000
0000
0000
,
1001
0000
0010
0000
1010
0000
0100
0000
0001
0000
0010
0000
1000
0000
0010
0100
,
0000
0000
1000
0001
1000
0000
0000
0000
0100
0000
1000
0000
0010
0000
0000
0000
,
0100
0000
0100
0000
0001
0000
0010
0000
1000
0000
0000
0010
0000
0000
0001
0000
,
0100
0000
0000
0010
0000
0000
1000
0000
0010
0000
0100
0000
1000
0000
0010
0000
,
0110
0000
0010
0000
0011
0000
0010
0000
1000
0000
0010
0000
0100
0000
1000
0010
,
0000
0000
0010
0100
0010
0000
1000
0000
0100
0000
0000
0000
0010
0000
0100
0000
,
0100
0000
0001
0000
0010
0000
1000
0000
0010
0000
0000
0010
0000
0000
0000
0000
,
0100
0000
0001
0010
0100
1000
0100
0010
0001
0000
0000
0000
0110
0000
0000
0000
,
1000
0000
0100
0000
1000
0000
0100
0000
0010
0000
0000
0020
0000
0000
0100
0000
,
0130
0001
0010
1000
0000
0001
0010
0100
,
0010
0000
0100
0000
0000
1000
0000
0000
0001
0000
0000
0010
0000
0000
0100
0000
,
1000
0000
0100
0000
0000
0010
0000
0000
1000
0000
0000
0010
0000
0000
0100
0000
,
0001
0000
0010
0000
0001
0000
0010
0000
0100
0000
0000
0200
0000
0000
0010
0000
,
0310
1000
0010
0100
0000
1000
0100
0010
,
0011
0000
0000
0010
0000
0000
0110
0000
0000
1000
0000
0000
0100
0000
1000
0000
,
0001
0010
0001
0010
0000
0000
1000
0100
1000
0100
0000
0000
0010
0000
0000
0000
,
0100
0000
0001
1000
0010
1000
0010
0001
,
0100
0000
0010
2000
0000
0000
0000
0000
0100
0000
3000
0000
0100
0000
0000
0000
,
0010
0000
1000
0010
0001
0010
1000
0010
,
0100
0000
0001
0020
0000
0000
0000
0000
0130
0000
0100
0000
0100
0000
0000
0000
,
0010
1000
0100
0010
0001
0010
1000
0010
,
0100
0000
0001
1000
0000
0000
0010
0000
1000
0000
0010
0000
0100
0000
0001
0000
,
0000
1000
0000
0010
0000
0100
1000
0100
,
0000
0010
0000
0100
0001
0010
1000
0001
,
0010
1000
0001
0010
0100
0001
0010
1000
,
0010
0100
1000
0001
0100
1000
0010
0001
,
0100
0000
0010
0000
0100
0000
1000
0000
0100
0010
0100
0000
1000
0000
0001
0000
,
0010
0000
0100
0000
0001
0000
0010
0000
1000
0001
1000
0000
0100
0000
1000
0000
,
0010
0000
1000
0000
0100
0000
0010
0000
0001
1000
0001
0000
0010
0000
0100
0000
,
0010
0000
1000
0000
0100
0000
1000
0000
0001
0010
0001
0000
1000
0000
0100
0000
,
0001
0010
0100
0010
0100
1000
0010
0100
,
0010
1000
0000
0000
0010
0000
0100
0001
0100
0000
0000
0000
0100
0000
0000
0000
,
1001
0000
0010
0000
0011
0000
0010
0000
0100
0000
1000
0000
0010
0000
0100
0001
,
0000
0000
0001
1000
0001
0000
0010
0000
0100
0000
1000
0000
0100
0000
0000
0000
,
0010
0000
0010
0000
0100
0000
1000
0000
0100
0000
0000
0001
0000
0000
0100
0000
,
0010
0000
0000
1000
0000
0000
0010
0000
0100
0000
1000
0000
0010
0000
0010
0000
,
1100
0000
0100
0000
0011
0000
0010
0000
0100
0000
0010
0000
1000
0000
0001
0010
,
0000
0000
1000
0100
1000
0000
0010
0000
0100
0000
0010
0000
0001
0000
0010
0000
,
1000
0000
0100
0000
0010
0000
0100
0000
0010
0000
0000
0001
0000
0000
0010
0000
,
0100
0000
1000
0010
0100
0001
0010
0100
1000
0000
0000
0000
0101
0000
0000
0000
,
0010
0000
1000
0000
0010
0000
1000
0000
0100
0000
0000
0200
0000
0000
0010
0000
,
0310
0001
1000
0010
0000
0100
1000
0100
,
0001
0000
0010
0000
0000
1000
0000
0000
0010
0000
0000
0100
0000
0000
0001
0000
,
0010
0000
1000
0000
0000
0001
0000
0000
0010
0000
0000
1000
0000
0000
0010
0000
,
0110
0000
0000
0000
;

//---------------dance-single - ----------------
#NOTES:
     dance-single:
     :
     Medium:
     5:
     0.300,0.284,0.123,0.034,0.000:
0010
0100
1000
0001
,
0100
0001
0100
0010
,
1000
0100
0010
1000
,
0020
0000
0000
0030
,
1000
0000
0001
0000
0100
0000
0001
1000
,
0001
0000
0010
0000
0100
1000
1000
0000
,
0010
0000
0100
0000
0001
0000
0100
1000
,
0100
0000
0010
0000
0100
0001
0001
0000
,
0010
0001
0010
0100
,
0010
0000
1000
0000
0001
0010
0001
0010
,
0000
0100
0000
0010
0000
1000
0001
1000
,
0000
0010
0000
0100
0010
0000
0010
0000
,
1000
0110
0010
0001
,
0010
0000
0100
0000
1000
0000
0010
0100
,
0010
0001
0100
0010
,
0100
0010
0100
0010
0100
0000
0000
0000
,
0100
0100
0010
0010
,
0001
0100
0010
1000
,
0010
0000
0010
0000
0010
0000
0100
0010
,
0010
1000
0011
1100
,
0010
0100
0010
0000
0001
1000
0001
0000
,
0010
1100
0010
1100
,
0010
0100
1000
0000
0010
0100
1000
0000
,
0010
0010
0100
0001
,
1000
0001
1000
0000
0010
0100
0010
0000
,
0100
0101
0100
0101
,
0010
1000
0010
0000
0100
0000
0100
0000
,
0010
1000
0020
0030
,
0001
0000
0010
0010
0010
0000
0100
0000
,
0010
1000
0010
1000
,
0010
0000
1000
0000
0001
0100
0001
0000
,
0010
0000
1000
0000
0100
0010
0100
0000
,
1000
0000
0010
0010
0010
0000
0100
0000
,
0001
1000
0100
0010
,
1000
0001
0100
0010
,
1000
0000
0000
0100
0000
0010
0010
0000
,
0100
0000
0001
0000
0100
0000
1000
0010
,
1000
0020
0000
0030
,
0100
0000
0001
0000
0100
0000
0010
0001
,
0010
0200
0000
0300
,
0010
0110
1000
0110
,
0001
0010
1000
0010
,
0100
0000
1000
0000
0001
0000
0100
0010
,
0100
0010
1000
1000
,
1001
0000
0010
0000
0100
1000
0100
0000
,
0010
0000
0100
0000
0001
0100
0010
0000
,
0100
0000
1000
0000
0010
1000
0010
0000
,
0100
0000
1000
0000
0010
1000
0001
0000
,
0010
0000
0100
0000
0001
0010
0001
0000
,
0100
0000
1000
0000
0100
1000
0001
0000
,
0010
0100
0010
1000
,
0110
0000
1100
0011
,
0100
0010
0100
0000
0001
1000
0001
0000
,
0010
1100
0010
1100
,
0010
0000
1000
0000
0001
0000
0100
0010
,
0100
0001
0010
0100
,
0001
1000
0001
0000
0100
0010
0100
0000
,
0010
0101
0010
0101
,
0010
0000
1000
0100
1000
0000
0010
0000
,
0100
0000
0001
0001
0002
0000
0003
0000
,
0010
0000
0100
0100
0100
0000
0010
0000
,
1000
0100
0001
0100
,
0010
1000
0010
0100
,
0010
1000
0010
1000
,
0110
0000
0000
0000
;

//---------------dance-single - ----------------
#NOTES:
     dance-single:
     :
     Easy:
     2:
     0.233,0.218,0.027,0.020,0.000: // measure 1
1000
0000
0010
0000
,  // measure 2
0100
0000
0001
0000
,  // measure 3
0100
0000
0010
0000
,  // measure 4
0200
0000
0000
0300
,  // measure 5
0010
0010
0010
0000
,  // measure 6
0100
0100
0001
0001
,  // measure 7
1000
1000
1000
0000
,  // measure 8
0010
0010
0100
0100
,  // measure 9
0001
0010
1000
0000
,  // measure 10
0010
0100
1000
0010
,  // measure 11
0100
1000
0010
0000
,  // measure 12
0010
0001
0100
1000
,  // measure 13
0010
0010
0010
0000
,  // measure 14
0100
1000
0100
0001
,  // measure 15
0100
0100
0100
0000
,  // measure 16
0001
0010
0100
0100
,  // measure 17
0010
1000
0100
0100
,  // measure 18
0001
0010
0001
0001
,  // measure 19
0010
0100
1000
0010
,  // measure 20
0100
0000
0100
0010
,  // measure 21
1001
0010
0100
1000
,  // measure 22
0010
0010
0100
0100
,  // measure 23
0001
1000
0010
0100
,  // measure 24
1000
1000
0010
0100
,  // measure 25
0110
0001
1000
0010
,  // measure 26
0001
0001
0010
0100
,  // measure 27
0010
0010
1000
0100
,  // measure 28
1000
0010
0010
0100
,  // measure 29
0001
0010
0100
1000
,  // measure 30
0001
0010
0100
1000
,  // measure 31
0010
0100
0010
1000
,  // measure 32
0010
0001
0010
0001
,  // measure 33
1000
0100
0010
0001
,  // measure 34
1000
0100
0010
0001
,  // measure 35
0100
0010
1000
0001
,  // measure 36
0010
0000
0010
0010
,  // measure 37
0100
0001
0100
0010
,  // measure 38
0200
0000
0000
0300
,  // measure 39
0010
1000
0100
0001
,  // measure 40
0020
0000
0000
0030
,  // measure 41
0100
1000
0010
0100
,  // measure 42
1000
1000
0001
0010
,  // measure 43
0100
0100
0010
0100
,  // measure 44
0001
0001
0010
0100
,  // measure 45
0001
0010
0100
1000
,  // measure 46
0001
0010
0100
1000
,  // measure 47
1000
0100
0010
0001
,  // measure 48
1000
0100
0010
0001
,  // measure 49
0100
1000
0010
0001
,  // measure 50
0100
0010
1000
0001
,  // measure 51
0010
0001
0100
0010
,  // measure 52
1000
0000
0100
0100
,  // measure 53
1001
0010
0100
0001
,  // measure 54
0010
0010
0100
0100
,  // measure 55
0001
0010
1000
0010
,  // measure 56
0100
0000
0100
0010
,  // measure 57
1001
0010
0100
1000
,  // measure 58
0100
0100
1000
0010
,  // measure 59
0100
0100
0001
0010
,  // measure 60
0001
0100
0100
0010
,  // measure 61
1000
0100
0010
0001
,  // measure 62
1000
0100
0010
0001
,  // measure 63
0010
1000
0010
1000
,  // measure 64
0001
0100
0001
0100
,  // measure 65
0010
0000
0000
0000
;
