#TITLE:Move;
#SUBTITLE:;
#ARTIST:Four Ladies (4L);
#TITLETRANSLIT:;
#SUBTITLETRANSLIT:;
#ARTISTTRANSLIT:;
#CREDIT:;
#BANNER:Move banner.png;
#BACKGROUND:Move bg.png;
#LYRICSPATH:;
#CDTITLE:;
#MUSIC:Move.mp3;
#OFFSET:-8.280;
#SAMPLESTART:37.360;
#SAMPLELENGTH:15.000;
#SELECTABLE:YES;
#BPMS:0.000=130.000,125.000=118.000,128.000=130.980;
#STOPS:;
#BGCHANGES:;

//---------------dance-single - ----------------
#NOTES:
     dance-single:
     :
     Hard:
     7:
     0.515,0.450,0.309,0.155,0.187:
0010
1000
0100
0001
0010
1000
0010
0000
,
1000
0000
0001
0100
0001
0000
0010
0000
1000
0000
0100
0000
0010
0000
0000
0000
,
0001
0010
0100
1000
0100
0000
0110
0000
,
1000
0100
0010
0001
0010
0000
0110
0000
,
1000
0001
0100
1000
0010
0001
0100
0000
,
0010
1000
0100
1000
0001
0010
0001
0100
,
0000
0210
0000
0300
0000
0001
0010
1000
,
0100
0000
0000
0000
0011
0000
0010
0000
0100
1000
0100
1000
0010
0000
0010
0000
,
0000
0000
1001
0000
0000
0000
0010
0000
1000
0000
0001
0000
0100
0000
0010
1000
,
0000
0000
0100
0000
0010
0000
0100
0000
0001
0010
0100
1000
0100
0000
0020
0000
,
0000
0000
0130
0000
0100
0000
1000
0000
0001
0000
0100
0010
0100
0000
0001
0000
,
0000
0000
0110
0000
0110
0000
0000
0000
1001
0000
0100
0010
0100
0000
2000
0000
,
0000
0000
3010
0000
0010
0000
0100
0001
0100
0000
0010
0000
1000
0000
0100
0000
,
0000
0000
0001
0000
1000
0000
0100
0010
0100
0000
1000
0000
0010
0000
0001
0000
,
0000
0000
0100
0000
0010
1000
0100
0010
0001
0000
0100
0000
0010
0000
0010
0000
,
1100
1010
0011
1001
,
0010
0000
1000
0110
0000
0001
0100
0000
,
0010
1000
0100
0001
0010
0000
0110
0000
,
2000
0000
0000
0000
0100
0000
3100
0000
0000
0000
0001
0000
0010
0000
0000
1000
,
0100
0000
0000
0100
0010
0000
0000
0010
0001
0000
0000
0000
1001
0000
0000
0000
,
0100
0000
0000
0010
0000
0000
0100
0000
0010
0000
0001
0000
1001
0000
0000
0000
,
0010
0000
1000
0100
0000
0100
0001
0000
0010
0000
0000
0000
0100
0000
1000
0000
,
0001
0001
0100
0100
0010
1000
0010
1000
,
0101
0110
2010
3001
,
0010
0000
0000
0000
0000
0000
1000
0000
0000
0000
0000
0000
0001
0000
0000
0000
0000
0000
0100
0000
0000
0000
0000
0000
0010
0000
0000
0001
0000
0000
0000
0000
0001
0000
0000
0000
0000
0000
0000
0000
0000
0000
0010
0000
0000
0000
0000
0000
,
0000
0000
0000
0000
0000
0000
1000
0000
0000
0000
0000
0000
0001
0000
0000
0000
0000
0000
0100
0000
0000
0000
0000
0000
0001
0000
0000
1000
0000
0000
0000
0000
1000
0000
0000
0000
0000
0000
0000
0000
0000
0000
0100
0000
0000
0000
0000
0000
,
0002
0000
0100
0100
0103
0000
0010
0000
,
1000
0000
0100
0010
0000
0010
0100
0000
,
0001
0000
0010
0000
0100
0000
1000
0000
0110
0000
0001
2000
0000
0000
3100
0000
,
0000
0000
0001
0000
1000
0000
0100
0000
0001
0000
0100
0020
0000
0000
0000
0000
,
1030
0000
0010
0000
0001
0000
0000
0000
0100
0000
0001
0010
0001
0000
1000
0000
,
0010
0100
2000
0000
0000
0000
0000
0000
,
3001
0000
0010
0000
0100
0000
1000
0000
0100
0000
0000
0000
0010
0000
0001
0010
,
0100
0000
1000
0000
0100
0000
0002
0000
0000
0000
0000
0000
1003
0010
1000
0010
,
1000
0000
0100
0200
0000
0001
0310
0000
,
1010
0000
1000
0000
1100
0000
1000
0000
1001
0000
0000
0000
0110
0000
0001
1000
,
0002
0000
0000
0003
;

//---------------dance-single - Amerie/Aidan----------------
#NOTES:
     dance-single:
     Amerie/Aidan:
     Medium:
     5:
     0.357,0.331,0.155,0.129,0.013:
0100
0000
0001
0000
0100
0010
0100
0000
,
1000
0000
0010
0000
0001
1000
0001
0000
,
0010
0100
0010
0100
0010
0000
0000
0000
,
1000
0001
1000
0001
1000
0000
0010
0000
,
1000
0000
0001
0000
0010
1000
0010
0000
,
0100
0000
1000
0000
0010
0000
0001
0100
,
0000
0200
0000
0000
0000
0301
0001
0000
,
0100
0000
0010
0000
1000
0001
1000
0001
,
1000
0000
0010
0000
0100
0010
0001
0000
,
0100
0000
0010
0000
1000
0100
0010
0002
,
0000
0103
0100
0000
0001
0000
0100
0100
,
0000
0010
0010
0000
1001
0000
0010
2000
,
0000
3010
0010
0000
0100
0000
0010
0000
,
0001
0001
1000
0000
0010
0000
0100
0000
,
0001
0000
1000
0000
0001
0010
0100
1000
,
0010
0100
0110
1001
,
0020
0000
0000
0130
0000
0000
0110
0000
,
0010
0000
1000
0001
1000
0000
0010
0000
,
2000
0000
0000
3100
0000
0010
0010
0000
,
1100
0110
0011
1001
,
0100
0000
0000
0100
0000
0000
0100
0000
0010
0000
0000
0000
0000
0000
0000
0000
,
0010
0000
0000
0010
0000
0000
0010
0000
0100
0000
0000
0000
0010
0000
0000
0000
,
1000
0000
0001
0000
0010
1000
0010
1000
,
0010
0100
0010
1001
,
0010
0000
1000
0000
0010
0100
0000
0110
,
0000
1000
0000
0100
0001
0100
0100
0000
,
0002
0000
0000
0100
0103
0000
0010
0000
,
2000
0000
0000
3010
0000
0000
0100
0000
,
0001
0010
0100
1000
0100
0000
0010
0000
,
0100
0010
1000
0100
0001
0000
0010
0000
,
0100
0100
0010
0000
0100
0000
0001
0000
,
0010
0100
2000
0000
0000
0000
0000
0000
,
3010
0000
0001
0000
0100
0010
0100
0000
,
1000
0000
0010
0000
0100
0001
0100
0000
,
0010
0000
0000
0110
0000
0000
0010
0000
,
1000
0100
0010
0001
0010
0000
0100
0000
,
2002
0000
0000
3003
;

//---------------dance-single - Amerie/Aidan----------------
#NOTES:
     dance-single:
     Amerie/Aidan:
     Easy:
     3:
     0.282,0.308,0.167,0.142,0.000:
0100
0001
1000
0010
,
1000
0001
0100
0001
,
0110
0110
0110
0000
,
1001
1001
1001
0000
,
1000
0001
0010
0100
,
0010
0000
1000
0000
0010
0000
0001
0100
,
0000
0200
0000
0000
0000
0300
0010
0000
,
0100
0000
0010
0000
1000
0000
1000
1000
,
0000
0010
0000
0000
0100
0000
0001
0000
,
0100
0000
0010
0000
1000
0000
0100
0002
,
0000
0003
0100
0000
0001
0000
0100
0000
,
0001
0000
0010
0000
0100
0000
0010
2000
,
0000
3000
0010
0000
0100
0000
0010
0000
,
1000
0001
1000
0010
,
0100
0000
0010
0000
0100
0100
0100
0000
,
0001
0010
0100
1000
,
0020
0000
0130
0000
,
0010
1000
0001
1000
,
0200
0000
0310
0000
,
1000
0100
0010
0001
,
0100
0100
0010
0000
,
0010
0010
0100
0010
,
1000
0001
0100
0010
,
0110
1001
0110
1001
,
0010
1000
0010
0000
,
0100
0001
0100
0010
,
0002
0000
0000
0103
0100
0000
0000
0000
,
2000
0000
0000
3010
0000
0000
0000
0000
,
0001
1000
0001
0020
,
0030
0100
1000
0010
,
0100
0100
0000
0010
,
0001
2000
0000
0000
,
3010
0001
0100
1001
,
1000
0010
0100
0110
,
0010
0000
0000
0010
0000
0000
0010
0000
,
1000
0001
1000
0001
,
2002
0000
0000
3003
;
